КВН-2014. Четвертая 1/8 финала [2014, юмор, тв-шоу, SATRip]

Ответить на тему
 

refantom ®

Стаж: 5 лет 10 месяцев

Сообщений: 195

Симпатии: 86

КВН 2014. Высшая лига. Четвертая 1/8 финала
Год выпуска: 2014
Страна: Россия
Жанр: Тв-шоу, юмор
Продолжительность: 01:50:44
Перевод: Не требуется
Русские субтитры: нет
Дата эфира: 13.04.2014
Описание: Программа "КВН" является самой долгоживущей передачей отечественного телеэкрана. Впервые выйдя в эфир 8 ноября 1961 года, она стала легендой еще черно-белого телевидения. В 1986 году "КВН" вновь появился на экране после 14-летнего перерыва и практически сразу вернул себе былую популярность. Сегодня телевизионная программа "КВН" - это вершина огромного айсберга, который представляет из себя Международный Союз КВН, включающий в себя более двух десятков официальных подготовительных Лиг и сотни региональных чемпионатов. Именно в этой передаче участвуют лучшие команды Клуба Веселых и Находчивых.
Команды: "Плохая компания", сборная Красноярского края
Сборная МФЮА, Москва-Волгоград
"Спарта", Астана
Сборная РУДН, Москва
"Детективное агентство "Лунный свет"", Белгород
качество: SATRip
Формат: Avi
Видео: 704x400 (1.76:1), 25 fps, DivX Codec 5.x or 6.x ~1799 kbps avg, 0.26 bit/pixel
Аудио: 48 kHz, MPEG Layer 3, 2 ch, ~128.00 kbps avg

MI

General
Complete name                            : Klub.13.04..2014.avi
Format                                   : AVI
Format/Info                              : Audio Video Interleave
File size                                : 1.50 GiB
Duration                                 : 1h 50mn
Overall bit rate                         : 1 941 Kbps
Writing library                          : Boilsoft AVI tool build 1/release
Video
ID                                       : 0
Format                                   : MPEG-4 Visual
Format settings, BVOP                    : Yes
Format settings, QPel                    : No
Format settings, GMC                     : No warppoints
Format settings, Matrix                  : Default (H.263)
Codec ID                                 : DX50
Codec ID/Hint                            : DivX 5
Duration                                 : 1h 50mn
Bit rate                                 : 1 800 Kbps
Width                                    : 704 pixels
Height                                   : 400 pixels
Display aspect ratio                     : 16:9
Frame rate                               : 25.000 fps
Color space                              : YUV
Chroma subsampling                       : 4:2:0
Bit depth                                : 8 bits
Scan type                                : Progressive
Compression mode                         : Lossy
Bits/(Pixel*Frame)                       : 0.256
Stream size                              : 1.39 GiB (93%)
Writing library                          : Intel(R) MPEG-4 encoder based on Intel(R) IPP 6.1 build 137.20[6.1.137.763]
Audio
ID                                       : 1
Format                                   : MPEG Audio
Format version                           : Version 1
Format profile                           : Layer 3
Mode                                     : Joint stereo
Mode extension                           : MS Stereo
Codec ID                                 : 55
Codec ID/Hint                            : MP3
Duration                                 : 1h 50mn
Bit rate mode                            : Constant
Bit rate                                 : 128 Kbps
Channel count                            : 2 channels
Sampling rate                            : 48.0 KHz
Compression mode                         : Lossy
Stream size                              : 101 MiB (7%)
Alignment                                : Aligned on interleaves
Interleave, duration                     : 24 ms (0.60 video frame)
Interleave, preload duration             : 504 ms
Writing library                          : LAME3.98.2

Скриншоты


_________________
Подпись отключена за нарушение правил форума

Создавать темы 14-Апр-2014 21:25

[Профиль]  [ЛС] 

[email protected]

Стаж: 5 лет 6 месяцев

Сообщений: 35

Симпатии: 2

лаги в музыкалке есть?а то с другого трекера качал, там музыкалку смотреть невозможно

Создавать темы 14-Апр-2014 21:32

[Профиль]  [ЛС] 

refantom ®

Стаж: 5 лет 10 месяцев

Сообщений: 195

Симпатии: 86

812511лаги в музыкалке есть?а то с другого трекера качал, там музыкалку смотреть невозможно
Нет. Все нормально.

_________________
Подпись отключена за нарушение правил форума

Создавать темы 14-Апр-2014 21:50

[Профиль]  [ЛС] 

Taipan1960

Стаж: 5 лет 9 месяцев

Сообщений: 29

Что-то у всех на 80% закачка зависла. Почти сутки прошли, а никто так полностью и не скачал. Сид, ау!

Создавать темы 15-Апр-2014 17:23

[Профиль]  [ЛС] 

EAGLE-7

Стаж: 7 лет

Сообщений: 26

Модеры ауу... как так пропустили ошибки ?
Во первых это не SATRip a HDTVRip и в шапке и в тех данных указан не правильно...
Во вторых размеры видео указаны не верно, не 704х400 а 720х400...
И в конце хочу сказать и MI данные не с этого релиза, точнее не с этого видео...

Создавать темы 15-Апр-2014 22:23

[Профиль]  [ЛС] 

refantom ®

Стаж: 5 лет 10 месяцев

Сообщений: 195

Симпатии: 86

813253Модеры ауу... как так пропустили ошибки ?
Во первых это не SATRip a HDTVRip и в шапке и в тех данных указан не правильно...
Во вторых размеры видео указаны не верно, не 704х400 а 720х400...
И в конце хочу сказать и MI данные не с этого релиза, точнее не с этого видео...
Вы это серьезно?! ВЫ для этого качаете КВН, чтобы MI соответствовало исходнику?!
Народ, вас это сильно напрягает?
(Я вообще-то с рутрекера скопировал, скачал, раздал. А что там в MI написано, даже не заглядывал. Не ЭТО было целью)

_________________
Подпись отключена за нарушение правил форума

Создавать темы 16-Апр-2014 15:27

[Профиль]  [ЛС] 

EAGLE-7

Стаж: 7 лет

Сообщений: 26

refantom, я не качаю отсюда, все это я просто к тому, что модер перед тем как ставить статус "Проверено" надо бы хотя бы соответствия проверить то что соответствуют ли действительности информация, или я не прав ???
хотя хозяин барин...

Создавать темы 16-Апр-2014 18:13

[Профиль]  [ЛС] 

refantom ®

Стаж: 5 лет 10 месяцев

Сообщений: 195

Симпатии: 86

Да ладно, каждый пишет, как он дышит. Модеру и карты в руки. Я лично КВН-ом насладился и другим того же желаю.

_________________
Подпись отключена за нарушение правил форума

Создавать темы 16-Апр-2014 18:46

[Профиль]  [ЛС] 
Показать сообщения:    
Ответить на тему

Текущее время: 18-Дек 10:10

Часовой пояс: UTC + 5



Вы не можете начинать темы
Вы не можете отвечать на сообщения
Вы не можете редактировать свои сообщения
Вы не можете удалять свои сообщения
Вы не можете голосовать в опросах
Вы не можете прикреплять файлы к сообщениям
Вы не можете скачивать файлы