НЕ ИГРАЛ - НЕ ЖИЛ / NO GAME NO LIFE / Нет игры - нет жизни / Игра на выживание (Исидзука Ацуко) [TV] [1-12 из 12] [RUS(int)] [2014 г., фентези, приключения, HDTVRip] [720p] [KANSAI]

Страницы :  1, 2, 3  След.

Ответить на тему
 

Азиз87 ®

Стаж: 5 лет 1 месяц

Сообщений: 752

Симпатии: 143


Год выпуска: 2014
Страна: Япония
Жанр: фентези, приключения
Продолжительность: 12 эп. по 25 мин.
Выпуск: c 09.04.2014-Озвучка:
  • многоголосая от студии KANSAI
-Режиссёр: Исидзука Ацуко
Автор оригинала: Камия Ю
Студия: Madhouse-Описание:
Главные герои – Сора и Широ, брат и сестра, NEET’ы и хикикомори, гениальный геймеры, чья выдающаяся биография стала прообразом разнообразных городских легенд в Интернете. Парочка настолько упоротая, что считает реальный мир просто «хреновой игрой». В один прекрасный день парнишка под ником «Бог» призывает их в параллельный мир, где, согласно заветам Бога, строго-настрого запрещены любые войны. Вместо этого все конфликты (включая и территориальные споры) решаются посредством игр. Человечество здесь медленно, но верно сдаёт свои позиции: прочие расы загнали людей в единственный оставшийся город. И теперь родственничкам-задротам представляется шанс стать взаправдашними спасителями человечества.-Информационные ссылки: AniDB || World Art || MAL-Качество: HDTVRip
Формат видео: MKV [Leopard-Raws]
Видео: x264 (8 bits), 1280х720, ~2 710 kbps, 23.976 fps
Аудио Russian: ААС, 48.0 kHz, ~256 (~192 Kbps с 5 серии), 2ch - в составе контейнера
-

Отличия

https://tas-ix.net/viewtopic.php?t=92612 - наличие озвучки

Подробные тех. данные

General
Complete name                            : G:\ANIME\NO GAME NO LIFE [KANSAI]\NO GAME NO LIFE - 01 [ 1280x720 ] KANSAI.mp4
Format                                   : MPEG-4
Format profile                           : Base Media
Codec ID                                 : isom
File size                                : 466 MiB
Duration                                 : 24mn 2s
Overall bit rate mode                    : Variable
Overall bit rate                         : 2 710 Kbps
Encoded date                             : UTC 2014-04-14 19:05:12
Tagged date                              : UTC 2014-04-14 19:05:12
Writing application                      : Yamb 2.1.0.0 [http://yamb.unite-video.com]
Video
ID                                       : 1
Format                                   : AVC
Format/Info                              : Advanced Video Codec
Format profile                           : [email protected]
Format settings, CABAC                   : Yes
Format settings, ReFrames                : 4 frames
Codec ID                                 : avc1
Codec ID/Info                            : Advanced Video Coding
Duration                                 : 24mn 1s
Bit rate                                 : 2 450 Kbps
Maximum bit rate                         : 13.9 Mbps
Width                                    : 1 280 pixels
Height                                   : 720 pixels
Display aspect ratio                     : 16:9
Frame rate mode                          : Constant
Frame rate                               : 23.976 fps
Color space                              : YUV
Chroma subsampling                       : 4:2:0
Bit depth                                : 8 bits
Scan type                                : Progressive
Bits/(Pixel*Frame)                       : 0.111
Stream size                              : 421 MiB (90%)
Title                                    : 264
Writing library                          : x264 core 129 r2245+729M 1a52e03
Encoding settings                        : cabac=1 / ref=4 / deblock=1:1:-1 / analyse=0x3:0x113 / me=umh / subme=9 / psy=1 / fade_compensate=0.00 / psy_rd=1.00:0.00 / mixed_ref=1 / me_range=24 / chroma_me=1 / trellis=2 / 8x8dct=1 / cqm=0 / deadzone=21,11 / fast_pskip=1 / chroma_qp_offset=-2 / threads=8 / lookahead_threads=1 / sliced_threads=0 / nr=0 / decimate=1 / interlaced=0 / bluray_compat=0 / constrained_intra=0 / fgo=0 / bframes=9 / b_pyramid=2 / b_adapt=2 / b_bias=0 / direct=1 / weightb=1 / open_gop=0 / weightp=2 / keyint=240 / keyint_min=24 / scenecut=40 / intra_refresh=0 / rc=crf / mbtree=0 / crf=19.0 / qcomp=0.72 / qpmin=0 / qpmax=69 / qpstep=4 / ip_ratio=1.40 / pb_ratio=1.30 / aq=1:0.85
Encoded date                             : UTC 2014-04-10 13:22:00
Tagged date                              : UTC 2014-04-14 19:05:13
Color primaries                          : BT.709
Transfer characteristics                 : BT.709
Matrix coefficients                      : BT.709
Audio
ID                                       : 2
Format                                   : AAC
Format/Info                              : Advanced Audio Codec
Format profile                           : LC
Codec ID                                 : 40
Duration                                 : 24mn 2s
Bit rate mode                            : Variable
Bit rate                                 : 256 Kbps
Maximum bit rate                         : 262 Kbps
Channel count                            : 2 channels
Channel positions                        : Front: L R
Sampling rate                            : 48.0 KHz
Compression mode                         : Lossy
Stream size                              : 44.0 MiB (9%)
Title                                    : Kansai
Language                                 : Russian
Encoded date                             : UTC 2014-04-14 19:05:13
Tagged date                              : UTC 2014-04-14 19:05:13

Скриншоты



Последний раз редактировалось: Азиз87 (2014-07-01 22:31), всего редактировалось 15 раз(а)

Создавать темы 14-Апр-2014 23:58

[Профиль]  [ЛС] 

Азиз87 ®

Стаж: 5 лет 1 месяц

Сообщений: 752

Симпатии: 143

И тут я понял, что "Проблемные дети из другого мира вернулись"/ Автор первоисточника дропнул 2-ую озвучку поэтому сделал один файл-видео.-

Создавать темы 15-Апр-2014 00:09

[Профиль]  [ЛС] 

SNIL

Стаж: 5 лет 11 месяцев

Сообщений: 2624

Симпатии: 341

812602И тут я понял, что "Проблемные дети из другого мира вернулись"
Значит ересь!)

Создавать темы 15-Апр-2014 22:59

[Профиль]  [ЛС] 

Rambotnik

Стаж: 6 лет 7 месяцев

Сообщений: 1274

Симпатии: 81

И тут я понял, что "Проблемные дети из другого мира вернулись"/ Автор первоисточника дропнул 2-ую озвучку поэтому сделал один файл-видео.
А ещё вернулись сестрофильские штучки из одноклыковой рыжей сестрёнки.

Создавать темы 16-Апр-2014 02:07

[Профиль]  [ЛС] 

Азиз87 ®

Стаж: 5 лет 1 месяц

Сообщений: 752

Симпатии: 143

Есть возможность выкладывать со звуком от Kansai Studio! Заменить источник озвучки на многоголосый или оставить 2х голосый при следующем обновлении?

Создавать темы 18-Апр-2014 11:50

[Профиль]  [ЛС] 

bl4ckSun

Стаж: 4 года 2 месяца

Сообщений: 48

Симпатии: 1

оставьте лупин нурико у лупина голос приятнее и там главных героев всего 3 не думаю что есть надобность в многоголоске )

Создавать темы 19-Апр-2014 07:42

[Профиль]  [ЛС] 

Азиз87 ®

Стаж: 5 лет 1 месяц

Сообщений: 752

Симпатии: 143

Добавил 2 серию. Замена озвучки от студии Кансай.

Создавать темы 25-Апр-2014 16:44

[Профиль]  [ЛС] 

Азиз87 ®

Стаж: 5 лет 1 месяц

Сообщений: 752

Симпатии: 143

Добавлена 3 серия.
Кансайцы в ударе быстро озвучивают или же на первоисточнике затянули с обновлением.

Создавать темы 27-Апр-2014 16:37

[Профиль]  [ЛС] 

farik9193

Стаж: 5 лет 1 месяц

Сообщений: 501

Симпатии: 47

Угу анимешка просто жесть !
уже давно не выпускали что то подобное :)

Вес смысл этого аниме

Создавать темы 30-Апр-2014 13:13

[Профиль]  [ЛС] 

Азиз87 ®

Стаж: 5 лет 1 месяц

Сообщений: 752

Симпатии: 143

821691Угу анимешка просто жесть !
уже давно не выпускали что то подобное :)

Вес смысл этого аниме

Мне понравилось из-за этих подобных сюжетов

^_^

Создавать темы 30-Апр-2014 14:10

[Профиль]  [ЛС] 

Monroe

Стаж: 4 года 6 месяцев

Сообщений: 220

Симпатии: 62

Озвучка от KANSAI класс

Создавать темы 04-Май-2014 14:15

[Профиль]  [ЛС] 

Азиз87 ®

Стаж: 5 лет 1 месяц

Сообщений: 752

Симпатии: 143

Добавлена 4 серия. Приятного просмотра.

Создавать темы 05-Май-2014 08:42

[Профиль]  [ЛС] 

farik9193

Стаж: 5 лет 1 месяц

Сообщений: 501

Симпатии: 47

821709
821691Угу анимешка просто жесть !
уже давно не выпускали что то подобное :)

Вес смысл этого аниме

Мне понравилось из-за этих подобных сюжетов

^_^

Хроническая сестрофилия bu bu

Создавать темы 05-Май-2014 14:18

[Профиль]  [ЛС] 

Азиз87 ®

Стаж: 5 лет 1 месяц

Сообщений: 752

Симпатии: 143

Хроническая сестрофилия bu bu
Мда вы сами хотя бы поняли суть тех сюжетов которые были выложены под спойлером?

жаль что полностью сюжет не поняли

  • Как внучка "тупого" короля не с того ни с сего стала видеть нашего ГГ!
  • Рыдают наши ГГ потому, что когда не видели друг друга пару минут(были разделены дверями в коридор) стали забиваться в угол и трястись от страха!
  • Этот жест предшествует словам Я хочу посмотреть как вы занимаетесь шпили-вили!

Создавать темы 05-Май-2014 16:11

[Профиль]  [ЛС] 

farik9193

Стаж: 5 лет 1 месяц

Сообщений: 501

Симпатии: 47

824220
Хроническая сестрофилия bu bu
Мда вы сами хотя бы поняли суть тех сюжетов которые были выложены под спойлером?

жаль что полностью сюжет не поняли

  • Как внучка "тупого" короля не с того ни с сего стала видеть нашего ГГ!
  • Рыдают наши ГГ потому, что когда не видели друг друга пару минут(были разделены дверями в коридор) стали забиваться в угол и трястись от страха!
  • Этот жест предшествует словам Я хочу посмотреть как вы занимаетесь шпили-вили!
Шерлок вы меня оканчательно запутали mm

Создавать темы 06-Май-2014 13:46

[Профиль]  [ЛС] 
Показать сообщения:    
Ответить на тему

Текущее время: 11-Дек 18:19

Часовой пояс: UTC + 5



Вы не можете начинать темы
Вы не можете отвечать на сообщения
Вы не можете редактировать свои сообщения
Вы не можете удалять свои сообщения
Вы не можете голосовать в опросах
Вы не можете прикреплять файлы к сообщениям
Вы не можете скачивать файлы