Афера по-американски / American Hustle (Дэвид О. Расселл) [2013 г., драма, комедия, HDRip] [Лицензия]

Ответить на тему
 

Suxrob89 ®

Стаж: 7 лет 1 месяц

Сообщений: 933

Симпатии: 564

-Афера по-американски / American Hustle- Год выпуска: 2013
Страна: США
Жанр: драма, комедия
Продолжительность: 02:18:04
Перевод: Дублированный [Лицензия]

Режиссер: Дэвид О. Расселл-В ролях: Кристиан Бэйл, Брэдли Купер, Эми Адамс, Джереми Реннер, Дженнифер Лоуренс, Луис С.К., Джек Хьюстон, Майкл Пенья, Ши Уигхэм, Алессандро Нивола, Роберт Де Ниро-Описание: В основе сюжета фильма реальная спецоперация, проводимая в конце 70-х — начале 80-х ФБР под кодовым названием Abscam. Она изначально была нацелена на расследование торговли краденым товаром. ФБР собиралось внедрить в преступную среду своих агентов под видом посредников, скупающих краденые шедевры для богатых коллекционеров Ближнего Востока. Впоследствии операция превратилась в изобличение коррупции на разных уровнях.-Бюджет: $40 000 000
Сборы в США: $147 034 574
Сборы в мире: + $101 054 000 = $248 088 574
Сборы в России: $5 529 914
Премьера (мир): 12 декабря 2013
Премьера (РФ): 13 февраля 2014, «Top Film Distribution»
Релиз на DVD: 18 марта 2014, «Lizard Cinema Trade»
Релиз на Blu-Ray: 18 марта 2014, «Lizard Cinema Trade»- -Качество: HDRip
Формат: AVI
Видео кодек: XviD
Аудио кодек: AC3
Видео: XviD, 720x304, 1 930 Kbps, 23.976 fps
Аудио: AC3, 6 ch, 448 Kbps, 48.0 KHz [RUS, ENG]

Media info

E:\American.Hustle.2013.D.HDRip.2800Mb.avi
   General
      Complete name : E:\American.Hustle.2013.D.HDRip.2800Mb.avi
      Format : AVI
      Format/Info : Audio Video Interleave
      Format profile : OpenDML
      File size : 2.74 GiB
      Duration : 2h 18mn
      Overall bit rate : 2 842 Kbps
      Writing application : VirtualDubMod 1.5.10.2 (build 2540/release)
      Writing library : VirtualDubMod build 2540/release
   Video #0
      ID : 0
      Format : MPEG-4 Visual
      Format profile : Advanced [email protected]
      Format settings, BVOP : 2
      Format settings, QPel : No
      Format settings, GMC : No warppoints
      Format settings, Matrix : Custom
      Codec ID : XVID
      Codec ID/Hint : XviD
      Duration : 2h 18mn
      Bit rate : 1 930 Kbps
      Width : 720 pixels
      Height : 304 pixels
      Display aspect ratio : 2.35:1
      Frame rate : 23.976 fps
      Color space : YUV
      Chroma subsampling : 4:2:0
      Bit depth : 8 bits
      Scan type : Progressive
      Compression mode : Lossy
      Bits/(Pixel*Frame) : 0.368
      Stream size : 1.86 GiB (68%)
      Writing library : XviD 1.2.1 (UTC 2008-12-04)
   Audio #1
      ID : 1
      Format : AC-3
      Format/Info : Audio Coding 3
      Mode extension : CM (complete main)
      Format settings, Endianness : Big
      Codec ID : 2000
      Duration : 2h 18mn
      Bit rate mode : Constant
      Bit rate : 448 Kbps
      Channel(s) : 6 channels
      Channel positions : Front: L C R, Side: L R, LFE
      Sampling rate : 48.0 KHz
      Bit depth : 16 bits
      Compression mode : Lossy
      Stream size : 442 MiB (16%)
      Alignment : Split accross interleaves
      Interleave, duration : 42 ms (1.00 video frame)
      Interleave, preload duration : 500 ms
   Audio #2
      ID : 2
      Format : AC-3
      Format/Info : Audio Coding 3
      Mode extension : CM (complete main)
      Format settings, Endianness : Big
      Codec ID : 2000
      Duration : 2h 18mn
      Bit rate mode : Constant
      Bit rate : 448 Kbps
      Channel(s) : 6 channels
      Channel positions : Front: L C R, Side: L R, LFE
      Sampling rate : 48.0 KHz
      Bit depth : 16 bits
      Compression mode : Lossy
      Stream size : 442 MiB (16%)
      Alignment : Split accross interleaves
      Interleave, duration : 42 ms (1.00 video frame)
      Interleave, preload duration : 500 ms

Скриншоты

-

Создавать темы 15-Апр-2014 07:26

[Профиль]  [ЛС] 

Dior7

Стаж: 5 лет 2 месяца

Сообщений: 35

Симпатии: 1

Спасибо! ay

Создавать темы 21-Апр-2014 20:44

[Профиль]  [ЛС] 

snowey

Стаж: 3 года 7 месяцев

Сообщений: 8

Симпатии: 1

не ухАдите.

Создавать темы 17-Май-2014 16:00

[Профиль]  [ЛС] 

Jnec

Стаж: 4 года 10 месяцев

Сообщений: 165

Спасибо!!!

Создавать темы 21-Май-2014 01:15

[Профиль]  [ЛС] 

Juravle_93

Стаж: 4 года 7 месяцев

Сообщений: 87

Симпатии: 7

Спасибо!!!

Создавать темы 02-Июн-2014 21:43

[Профиль]  [ЛС] 
Показать сообщения:    
Ответить на тему

Текущее время: 21-Сен 10:07

Часовой пояс: UTC + 5



Вы не можете начинать темы
Вы не можете отвечать на сообщения
Вы не можете редактировать свои сообщения
Вы не можете удалять свои сообщения
Вы не можете голосовать в опросах
Вы не можете прикреплять файлы к сообщениям
Вы не можете скачивать файлы