Семейный уик-энд / Family Weekend (Бенжамин Еппс / Benjamin Epps) [2013, США, драма, комедия, WEB-DL 720p] Dub [Лицензия] + Original Eng + Sub eng

Ответить на тему
 

yusuf.0088 ®

Стаж: 4 года

Сообщений: 116

Симпатии: 69

Семейный уик-энд / Family Weekend
«If a family doesn't stick together, sometimes you have to use a little tape»-- Страна: США
Жанр: драма, комедия
Год выпуска: 2013
Продолжительность: 01:45:34--Перевод: Профессиональный (дублированный) [Лицензия]
Оригинальная аудиодорожка: Английская
Cубтитры: английские--Режиссер: Бенжамин Еппс / Benjamin Epps--В ролях: Кристин Ченоуэт, Мэттью Модайн, Олеся Рулин, Джои Кинг, Эдди Хэсселл, Ширли Джонс, Хлоя Бриджес, Адам Саундерс, Робби Такер, Питер Гэйл--Описание:
Далеко не каждая семья счастлива, но и по-настоящему ужасных семей немного. Но семья Смит-Данджи – именно такая. Отец семейства, романтически настроенный художник, с головой ушел в творчество, и ему нет дела до семейных проблем. Мать, которая настояла на том, чтобы у нее и детей была двойная фамилия (в девичестве она носила имя Саманта Смит), озабочена собственной карьерой и почти не обращает внимания на детей.
Друг на друга супруги и вовсе не смотрят, вполне довольные тем, как проходит их семейная жизнь. Когда старшей дочери по имени Эмили исполнилось 16 лет, ее терпение лопнуло. Решив, что нет ничего хуже семьи, в которой родителям нет дела друг до друга и до своих детей, Эмили решила взяться за перевоспитание отца и матери. Заручившись поддержкой младших братьев и сестер, она устраивает для своих легкомысленных родителей уик-энд, полный настоящих испытаний. Если это не заставит их пересмотреть свои взгляды на семейную жизнь и заботу о детях, значит, решения проблемы и вовсе нет.-- --Релиз: Cinemania--Качество: WEB-DL 720p
Контейнер: MKV
Аудио кодек: AC3--Видео: MPEG-4 AVC / High Profile 4.1 / 1280x544 / 23.976 fps / 4158 kbps
Аудио 1: Русский / AC3 6ch / 48 KHz / 384 kbps |Дубляж|
Аудио 2: Английский / AC3 6ch / 48 KHz / 384 kbps |Original|

MediaInfo

Формат : Matroska
Версия формата : Version 4 / Version 2
Размер файла : 3,71 Гбайт
Продолжительность : 1 ч. 45 м.
Общий поток : 5026 Кбит/сек
Название фильма : Release Group CINEMANIA
Дата кодирования : UTC 2014-04-08 21:13:37
Программа кодирования : mkvmerge v6.8.0 ('Theme for Great Cities') 64bit built on Mar 2 2014 21:34:26
Библиотека кодирования : libebml v1.3.0 + libmatroska v1.4.1
Видео
Идентификатор : 1
Формат : AVC
Формат/Информация : Advanced Video Codec
Профиль формата : [email protected]
Параметр CABAC формата : Нет
Параметр ReFrames формата : 2 кадра
Идентификатор кодека : V_MPEG4/ISO/AVC
Продолжительность : 1 ч. 45 м.
Битрейт : 4158 Кбит/сек
Ширина : 1280 пикселей
Высота : 544 пикселя
Соотношение сторон : 2,35:1
Режим частоты кадров : Постоянный
Частота кадров : 23,976 кадра/сек
Цветовое пространство : YUV
Субдискретизация насыщенности : 4:2:0
Битовая глубина : 8 бит
Тип развёртки : Прогрессивная
Бит/(Пиксели*Кадры) : 0.249
Размер потока : 3,07 Гбайт (83%)
Заголовок : Release Group CINEMANIA
Язык : English
Default : Нет
Forced : Нет
Основные цвета : BT.709
Характеристики трансфера : BT.709
Коэффициенты матрицы : BT.709
Аудио #1
Идентификатор : 2
Формат : AC-3
Формат/Информация : Audio Coding 3
Расширение режима : CM (complete main)
Параметр Endianness формата : Big
Идентификатор кодека : A_AC3
Продолжительность : 1 ч. 45 м.
Вид битрейта : Постоянный
Битрейт : 384 Кбит/сек
Каналы : 6 каналов
Расположение каналов : Front: L C R, Side: L R, LFE
Частота : 48,0 КГц
Битовая глубина : 16 бит
Метод сжатия : С потерями
Размер потока : 290 Мбайт (8%)
Заголовок : Лицензия (Дубляж)
Язык : Russian
Default : Да
Forced : Да
Аудио #2
Идентификатор : 3
Формат : AC-3
Формат/Информация : Audio Coding 3
Расширение режима : CM (complete main)
Параметр Endianness формата : Big
Идентификатор кодека : A_AC3
Продолжительность : 1 ч. 45 м.
Вид битрейта : Постоянный
Битрейт : 384 Кбит/сек
Каналы : 6 каналов
Расположение каналов : Front: L C R, Side: L R, LFE
Частота : 48,0 КГц
Битовая глубина : 16 бит
Метод сжатия : С потерями
Размер потока : 290 Мбайт (8%)
Язык : English
Default : Нет
Forced : Нет
Текст
Идентификатор : 4
Формат : UTF-8
Идентификатор кодека : S_TEXT/UTF8
Идентификатор кодека/Информация : UTF-8 Plain Text
Язык : English
Default : Нет
Forced : Нет
Меню
00:00:00.000 : en:Jump Competition
00:07:44.000 : en:Where Were You?
00:14:59.000 : en:What About Condoms?
00:21:18.000 : en:Family Dinner
00:29:37.000 : en:The Plan
00:35:35.000 : en:Smith-Dungy Stats
00:45:28.000 : en:Unexpected Guest
00:58:05.000 : en:Speak The Truth
01:12:58.000 : en:Work Together
01:23:45.000 : en:Watch The DVD
01:33:09.000 : en:Queen Freak
01:41:16.000 : en:End Credits

Скриншоты

Создавать темы 15-Апр-2014 23:05

[Профиль]  [ЛС] 

Alex13

Стаж: 4 года 11 месяцев

Сообщений: 13

Pomogite nayti tu muziku kotoroe proigrovayetsa na 1час:27минут;30секунде. pod katoruyu tancuyet etot pridurok rabotayushiy na mamu devochki. Shazam ne mojet opredelit' muzon.

Создавать темы 18-Апр-2014 01:18

[Профиль]  [ЛС] 
Показать сообщения:    
Ответить на тему

Текущее время: 18-Окт 07:08

Часовой пояс: UTC + 5



Вы не можете начинать темы
Вы не можете отвечать на сообщения
Вы не можете редактировать свои сообщения
Вы не можете удалять свои сообщения
Вы не можете голосовать в опросах
Вы не можете прикреплять файлы к сообщениям
Вы не можете скачивать файлы