Черно-белый секс / Black & White & Sex (Джон Винтер / John Winter) [2012, Австралия, DVDRip] MVO

Ответить на тему
 

Suxrob89 ®

Стаж: 7 лет 2 месяца

Сообщений: 933

Симпатии: 564

-Черно-белый секс / Black & White & Sex- Страна: Австралия
Жанр: драма
Год выпуска: 2012
Продолжительность:01:30:16
Перевод: Профессиональный (многоголосый закадровый) НТВ+
Cубтитры: нет-Режиссер: Джон Винтер / John Winter-В ролях: Кэтерин Хикс, Anya Beyersdorf, Валери Бейдер, Роксана Уилсон, Мишель Вергара Мур, Дина Паноццо, Саския Бурмайстер, Майа Томас, Мэттью Холмс-Описание: Проститутка, сексуальная и соблазнительная, Энджи намерена установить рекорд в откровениях о сексе. Открывая себя шаг за шагом человеку, который берет у нее интервью, она в то же время провоцирует и его самого. Иногда слишком откровенная, иногда нежная и всегда сексуальная, героиня фильма уводит за собой за кулисы в особый мир.- -Качество видео: DVDRip
Формат видео: AVI
Видео кодек: XviD
Аудио кодек: AC3
Видео: 640x272 (2.35:1), 25 fps, XviD build 64 ~953 kbps avg, 0.22 bit/pixel
Аудио: 48 kHz, AC3 Dolby Digital, 2/0 (L,R) ch, ~192 kbps

Media info

Complete name : Cherno.belyj.seks.2012.DVDRip.avi
Format : AVI
Format/Info : Audio Video Interleave
File size : 746 MiB
Duration : 1h 30mn
Overall bit rate : 1 156 Kbps
Writing application : VirtualDubMod 1.5.10.2 (build 2540/release)
Writing library : VirtualDubMod build 2540/release
Video
ID : 0
Format : MPEG-4 Visual
Format profile : Advanced [email protected]
Format settings, BVOP : 2
Format settings, QPel : No
Format settings, GMC : No warppoints
Format settings, Matrix : Default (H.263)
Codec ID : XVID
Codec ID/Hint : XviD
Duration : 1h 30mn
Bit rate : 954 Kbps
Width : 640 pixels
Height : 272 pixels
Display aspect ratio : 2.35:1
Frame rate : 25.000 fps
Color space : YUV
Chroma subsampling : 4:2:0
Bit depth : 8 bits
Scan type : Progressive
Compression mode : Lossy
Bits/(Pixel*Frame) : 0.219
Stream size : 616 MiB (83%)
Writing library : XviD 64
Audio
ID : 1
Format : AC-3
Format/Info : Audio Coding 3
Mode extension : CM (complete main)
Format settings, Endianness : Big
Codec ID : 2000
Duration : 1h 30mn
Bit rate mode : Constant
Bit rate : 192 Kbps
Channel(s) : 2 channels
Channel positions : Front: L R
Sampling rate : 48.0 KHz
Bit depth : 16 bits
Compression mode : Lossy
Stream size : 124 MiB (17%)
Alignment : Split accross interleaves
Interleave, duration : 40 ms (1.00 video frame)
Interleave, preload duration : 500 ms

Скриншоты

Создавать темы 16-Апр-2014 06:53

[Профиль]  [ЛС] 

shahz

Стаж: 5 лет 8 месяцев

Сообщений: 192

Симпатии: 9

не могу сказать что повтор, так как объем файла разный. Но очень похоже -
https://tas-ix.net/viewtopic.php?t=92676

Создавать темы 16-Апр-2014 07:34

[Профиль]  [ЛС] 

edgemza

Стаж: 6 лет 5 месяцев

Сообщений: 191

Симпатии: 7

Судя по скриншотам, фильм стилизован под черно-белое кино, это так?

Создавать темы 16-Апр-2014 08:56

[Профиль]  [ЛС] 

demiart

Стаж: 5 лет 7 месяцев

Сообщений: 123

Симпатии: 1

тут одна болтология не более , так что после 30 минут можно уснуть!))

Создавать темы 16-Апр-2014 11:46

[Профиль]  [ЛС] 

kat222000

Стаж: 6 лет 6 месяцев

Сообщений: 608

Симпатии: 1055

https://tas-ix.net/viewtopic.php?t=92676-На Этой Раздаче Разница Только В Звуке...

Создавать темы 16-Апр-2014 14:23

[Профиль]  [ЛС] 

Sinema_uz

Стаж: 6 лет 9 месяцев

Сообщений: 303

Симпатии: 4

толька болтають

Создавать темы 25-Апр-2014 05:58

[Профиль]  [ЛС] 

tamilla3

Стаж: 4 года 8 месяцев

Сообщений: 1

а мне понравился,это не для тех кто любит подумать и осмыслить

Создавать темы 20-Июн-2014 20:28

[Профиль]  [ЛС] 
Показать сообщения:    
Ответить на тему

Текущее время: 23-Окт 13:14

Часовой пояс: UTC + 5



Вы не можете начинать темы
Вы не можете отвечать на сообщения
Вы не можете редактировать свои сообщения
Вы не можете удалять свои сообщения
Вы не можете голосовать в опросах
Вы не можете прикреплять файлы к сообщениям
Вы не можете скачивать файлы