Пришествие Дьявола / Devil's Due (Мэттью Беттинелли, Тайлер Джиллетт) [2014 г., ужасы, HDRip][Лицензия]

Ответить на тему
 

Suxrob89 ®

Стаж: 7 лет 4 месяца

Сообщений: 933

Симпатии: 564

-Пришествие Дьявола / Devil's Due- Год выпуска: 2014
Страна: США
Жанр: ужасы
Продолжительность: 01:29:01
Перевод: Дублированное [Лицензия]-Режиссер: Мэттью Беттинелли, Тайлер Джиллетт-В ролях: Эллисон Миллер, Зак Гилфорд, Сэм Андерсон, Роджер Пейано, Ванесса Рэй, Билл Мартин Уильямс, Джеральдин Сингер, Джулия Дентон Френсис, Колин Уолкер, Мэдисон Вульф-Описание: После странной ночи во время их медового месяца молодожены сталкиваются с проблемой незапланированной беременности. Постепенно муж начинает замечать необычные изменения в поведении жены, поначалу они списывают это на нервы, но по прошествии нескольких месяцев становится очевидным, что перемены в ее теле и разуме имеют более зловещее происхождение.- -Качество: HDRip [Рип с BDRip 720p]
Формат: AVI (XviD)
Видео: 1741 kb/s, 720x384
Аудио: AC3, 448 kb/s (6 ch)

Media info

E:\Prishestvie.Djavola.2014.D.HDRip.1400Mb.avi
   General
      Complete name : E:\Prishestvie.Djavola.2014.D.HDRip.1400Mb.avi
      Format : AVI
      Format/Info : Audio Video Interleave
      File size : 1.37 GiB
      Duration : 1h 29mn
      Overall bit rate : 2 198 Kbps
      Writing application : VirtualDubMod 1.5.10.2 (build 2540/release)
      Writing library : VirtualDubMod build 2540/release
   Video #0
      ID : 0
      Format : MPEG-4 Visual
      Format profile : Advanced [email protected]
      Format settings, BVOP : 2
      Format settings, QPel : No
      Format settings, GMC : No warppoints
      Format settings, Matrix : Custom
      Codec ID : XVID
      Codec ID/Hint : XviD
      Duration : 1h 29mn
      Bit rate : 1 741 Kbps
      Width : 720 pixels
      Height : 384 pixels
      Display aspect ratio : 1.85:1
      Frame rate : 23.976 fps
      Color space : YUV
      Chroma subsampling : 4:2:0
      Bit depth : 8 bits
      Scan type : Progressive
      Compression mode : Lossy
      Bits/(Pixel*Frame) : 0.263
      Stream size : 1.08 GiB (79%)
      Writing library : XviD 1.2.1 (UTC 2008-12-04)
   Audio #1
      ID : 1
      Format : AC-3
      Format/Info : Audio Coding 3
      Mode extension : CM (complete main)
      Format settings, Endianness : Big
      Codec ID : 2000
      Duration : 1h 29mn
      Bit rate mode : Constant
      Bit rate : 448 Kbps
      Channel count : 6 channels
      Channel positions : Front: L C R, Side: L R, LFE
      Sampling rate : 48.0 KHz
      Bit depth : 16 bits
      Compression mode : Lossy
      Stream size : 285 MiB (20%)
      Alignment : Split accross interleaves
      Interleave, duration : 42 ms (1.00 video frame)
      Interleave, preload duration : 500 ms

Скриншоты



Последний раз редактировалось: Suxrob89 (2014-04-19 06:27), всего редактировалось 2 раз(а)

Создавать темы 16-Апр-2014 07:01

[Профиль]  [ЛС] 

azuzin

Стаж: 5 лет 10 месяцев

Сообщений: 33

Симпатии: 3

Спасибо!!!!!!!!!!!!!!!!!!!!!!!!!!!!!!!

Создавать темы 16-Апр-2014 08:27

[Профиль]  [ЛС] 

Tony_storm

Стаж: 4 года 8 месяцев

Сообщений: 61

когда будет с нормальной озвучкой?

Комментарий от Grock


Дублированная лицензия вас не устраивает?

Создавать темы 16-Апр-2014 13:44

[Профиль]  [ЛС] 

Alex2001

Стаж: 4 года 10 месяцев

Сообщений: 11

Дайте скорость! ПлизЗз !

Создавать темы 20-Апр-2014 21:04

[Профиль]  [ЛС] 

death

Стаж: 5 лет 9 месяцев

Сообщений: 39

Зря качал, подобных уже полно (Псевдодокументальный фильм). Помогу с раздачей

Создавать темы 11-Май-2014 14:27

[Профиль]  [ЛС] 

sancho0090

Стаж: 5 лет 10 месяцев

Сообщений: 11

спасибо

Создавать темы 04-Июн-2014 15:03

[Профиль]  [ЛС] 

joyako

Стаж: 4 года 2 месяца

Сообщений: 1

помогите с раздачей

Создавать темы 23-Ноя-2014 16:47

[Профиль]  [ЛС] 

furzy

Стаж: 5 лет 11 месяцев

Сообщений: 67

Симпатии: 2

Здравствуй Тв3, это снова ты)))

Создавать темы 23-Ноя-2014 19:32

[Профиль]  [ЛС] 

focusn1k

Стаж: 5 лет 1 месяц

Сообщений: 30

классный фильм

Создавать темы 29-Ноя-2014 01:40

[Профиль]  [ЛС] 
Показать сообщения:    
Ответить на тему

Текущее время: 11-Дек 12:32

Часовой пояс: UTC + 5



Вы не можете начинать темы
Вы не можете отвечать на сообщения
Вы не можете редактировать свои сообщения
Вы не можете удалять свои сообщения
Вы не можете голосовать в опросах
Вы не можете прикреплять файлы к сообщениям
Вы не можете скачивать файлы