Риддик. Черная дыра / Riddick. Pitch Black (Дэвид Туи) [2000 г., Фантастика, боевик, триллер, BDRip]

Ответить на тему
 

Sobir_01 ®

Стаж: 3 года 11 месяцев

Сообщений: 13

Симпатии: 4

Риддик. Черная дыра / Riddick. Pitch Black
Год выпуска: 2000
Страна: США
Жанр: Фантастика, боевик, триллер
Продолжительность: 01:51:55
Перевод: Профессиональный (полное дублирование)
Режиссер: Дэвид Туи
В ролях: Вин Дизель, Рада Митчелл, Коул Хаузер, Кит Дэвид, Льюис Фиц-Джералд, Клаудия Блэк, Риана Гриффит, Джон Мур, Саймон Бурк, Лес Чэнтери
Описание: В недалеком будущем космический корабль терпит бедствие, в результате чего совершает вынужденную посадку на отдаленной планете. Но в результате такой посадки погибает командир корабля, часть команды и большинство пассажиров.
Оставшиеся в живых оказываются одни на жуткой и безжизненной планете. Первое, что бросается в глаза — это то, что планета имеет три солнца, из-за чего все живое погибает в этой пустыне. Но как только планета погружается в темноту, появляются какие-то странные существа…
Качество: BDRip
Видео кодек: H.264
Аудио кодек: AC3
Видео: 1920x816, 23.976fps, 9408Kbps
Аудио 1: 48000Hz, 6ch, 755Kbps [Russian]DTS
Аудио 2: 48000Hz, 6ch, 755Kbps [English]DTS
Аудио 3: 48000Hz, 6ch, 755Kbps [Russian]DTS Goblin
Субтитры: UTF-8 [Subtitle]

Скриншоты

MI

General
Unique ID : 242856205100095544385792390913236392601 (0xB6B4675CB368C18FA55A9B1CCB17DA99)
Complete name : E:\Downloads\Зарубежные фильмы\Риддик Трилогия\Ridic.mkv
Format : Matroska
Format version : Version 1
File size : 9.13 GiB
Duration : 1h 51mn
Overall bit rate : 11.7 Mbps
Encoded date : UTC 2009-03-24 18:39:38
Writing application : mkvmerge v2.5.3 ('Boogie') built on Mar 7 2009 15:00:41
Writing library : libebml v0.7.7 + libmatroska v0.8.1
Attachment : Yes
Video
ID : 1
Format : AVC
Format/Info : Advanced Video Codec
Format profile : [email protected]
Format settings, CABAC : Yes
Format settings, ReFrames : 8 frames
Format settings, GOP : N=1
Codec ID : V_MPEG4/ISO/AVC
Duration : 1h 51mn
Bit rate : 9 408 Kbps
Width : 1 920 pixels
Height : 816 pixels
Display aspect ratio : 2.35:1
Frame rate : 23.976 fps
Color space : YUV
Chroma subsampling : 4:2:0
Bit depth : 8 bits
Scan type : Progressive
Bits/(Pixel*Frame) : 0.250
Stream size : 7.18 GiB (79%)
Writing library : x264 core 54 svn-635M
Encoding settings : cabac=1 / ref=5 / deblock=1:-3:-3 / analyse=0x3:0x133 / me=umh / subme=7 / brdo=1 / mixed_ref=1 / me_range=16 / chroma_me=1 / trellis=1 / 8x8dct=1 / cqm=2 / deadzone=21,11 / chroma_qp_offset=0 / threads=3 / nr=0 / decimate=1 / mbaff=0 / bframes=3 / b_pyramid=1 / b_adapt=1 / b_bias=0 / direct=3 / wpredb=1 / bime=1 / keyint=250 / keyint_min=25 / scenecut=40(pre) / rc=2pass / bitrate=9408 / ratetol=1.0 / rceq='blurCplx^(1-qComp)' / qcomp=0.60 / qpmin=10 / qpmax=51 / qpstep=4 / cplxblur=20.0 / qblur=0.5 / ip_ratio=1.40 / pb_ratio=1.30 / aq=1:0.3:15.0
Language : English
Default : Yes
Forced : No
Audio #1
ID : 2
Format : DTS
Format/Info : Digital Theater Systems
Codec ID : A_DTS
Duration : 1h 51mn
Bit rate mode : Constant
Bit rate : 755 Kbps
Channel(s) : 6 channels
Channel positions : Front: L C R, Side: L R, LFE
Sampling rate : 48.0 KHz
Bit depth : 24 bits
Compression mode : Lossy
Stream size : 604 MiB (6%)
Title : DTS
Language : Russian
Default : Yes
Forced : No
Audio #2
ID : 3
Format : DTS
Format/Info : Digital Theater Systems
Codec ID : A_DTS
Duration : 1h 51mn
Bit rate mode : Constant
Bit rate : 755 Kbps
Channel(s) : 6 channels
Channel positions : Front: L C R, Side: L R, LFE
Sampling rate : 48.0 KHz
Bit depth : 16 bits
Compression mode : Lossy
Stream size : 604 MiB (6%)
Title : DTS
Language : English
Default : No
Forced : No
Audio #3
ID : 4
Format : DTS
Format/Info : Digital Theater Systems
Codec ID : A_DTS
Duration : 1h 51mn
Bit rate mode : Constant
Bit rate : 755 Kbps
Channel(s) : 6 channels
Channel positions : Front: L C R, Side: L R, LFE
Sampling rate : 48.0 KHz
Bit depth : 24 bits
Compression mode : Lossy
Stream size : 604 MiB (6%)
Title : DTS Goblin
Language : Russian
Default : No
Forced : No
Text 1
ID : 5
Format : UTF-8
Codec ID : S_TEXT/UTF8
Codec ID/Info : UTF-8 Plain Text
Title : Русские(эпизоды режиссерской версии)
Language : Russian
Default : Yes
Forced : No


Последний раз редактировалось: Sobir_01 (2014-04-16 18:27), всего редактировалось 1 раз

Создавать темы 16-Апр-2014 14:42

[Профиль]  [ЛС] 

Sobir_01 ®

Стаж: 3 года 11 месяцев

Сообщений: 13

Симпатии: 4

пака раздача не будет

Создавать темы 16-Апр-2014 18:25

[Профиль]  [ЛС] 

Топик был перенесен из форума Фильмы до 2010 в форум Зарубежное кино
СтАсИкОс

Создавать темы 16-Апр-2014 21:40

 

uzaynutdinov

Стаж: 4 года 3 месяца

Сообщений: 12

Симпатии: 3

Sobir_01, а когда будет ?

Создавать темы 21-Апр-2014 01:50

[Профиль]  [ЛС] 

Sa-shock159

Стаж: 4 года 5 месяцев

Сообщений: 97

Симпатии: 27

62% згрузил и тупо третьи сутки стоит

Создавать темы 08-Май-2014 20:06

[Профиль]  [ЛС] 
Показать сообщения:    
Ответить на тему

Текущее время: 19-Ноя 06:18

Часовой пояс: UTC + 5



Вы не можете начинать темы
Вы не можете отвечать на сообщения
Вы не можете редактировать свои сообщения
Вы не можете удалять свои сообщения
Вы не можете голосовать в опросах
Вы не можете прикреплять файлы к сообщениям
Вы не можете скачивать файлы