Корабль призрак / Ghost Ship (Стив Бек) [2002 г., ужасы, триллер, детектив, BDRip-AVC]

Ответить на тему
 

zverblackboxfinder ®

Стаж: 3 года 11 месяцев

Сообщений: 31

Симпатии: 1

Корабль призрак / Ghost Ship-- Год выпуска: 2002
Страна: США, Австралия
Жанр: ужасы, триллер, детектив
Продолжительность: 01:31:42
Перевод: Профессиональный (полное дублирование)
Режиссер: Стив Бек
В ролях: Джулианна Маргулис, Десмонд Хэррингтон, Гэбриел Бирн, Рон Элдард, Исайя Вашингтон, Карл Урбан, Эмили Браунинг, Алекс Димитриадес
Франческа Реттондини, Боб Руджеро
Описание: В отдаленной области Берингова моря команда спасателей обнаруживает останки огромного пассажирского лайнера, который считался погибшим более 40 лет назад. Оказавшись на борту судна, спасатели сталкиваются с жутким прошлым корабля и вынуждены вступить в смертельную схватку…
Доп. информация: Традиционный жанр «морской страшилки», чьё действие происходит на пропавшем сорок лет назад в Атлантике итальянском океанском лайнере, вновь объявившемся уже в Беринговом море, довольно странно дополнен двумя обстоятельствами, которые всё-таки меняют представление о том, что должно быть в мистическом триллере. Девочка-призрак из числа бывших пассажиров этого корабля не только готова помочь, но даже разговаривает с участниками рискованной экспедиции, отправившимися на поиски таинственного судна, чтобы поживиться тем, что удастся там найти. Да и другие давно умершие вступают в беседы с искателями сокровищ, правда, преследуя иную цель — заманить их и привести к смерти. Поскольку (как выясняется) есть глобальный план у некоего «охотника за душами», который хочет завлечь на исчезнувший лайнер, время от времени опять материализующийся, как можно больше людей
Качество: BDRip-AVC
Формат: MKV
Видео кодек: AVC 1024x576, 2210 kbps, apect 16:9, Frame rate 23.976 fps
Аудио кодек: AC3 Bit rate : 448 Kbps Russian, 6 channels Front:L C R, Side: L R, LFE, 48.0 khz
Аудио кодек: AC3 Bit rate : 384 Kbps Ukrainian 6 channels Front:L C R, Side: L R, LFE, 48.0 khz
Аудио кодек: AC3 Bit rate : 192 Kbps English 2 channels Side: L R, 48.0 khz--7/10 - КиноПоиск.ru
5,4/10 - IMDb
--
Karabl prizrak.2002.BDRip-AVC.PT.mkv
General
Unique ID : 213983152562276124053201948290158167781 (0xA0FBA7F6EACB89A8B47F1AA2C31406E5)
Complete name : D:\Rammstein 2009\Rammstein - Du Riechst So Gut 98.mp3\Ghost Ship\Karabl prizrak.2002.BDRip-AVC.PT.mkv
Format : Matroska
Format version : Version 2
File size : 2.05 GiB
Duration : 1h 30mn
Overall bit rate : 3 229 Kbps
Movie name : Êîðàáëü-ïðèçðàê / Ghost Ship (2002) BDRip-AVC rip by rulya74
Encoded date : UTC 2012-07-11 12:21:47
Writing application : mkvmerge v5.7.0 ('The Whirlwind') built on Jul 8 2012 20:08:51
Writing library : libebml v1.2.3 + libmatroska v1.3.0
Video #1
ID : 1
Format : AVC
Format/Info : Advanced Video Codec
Format profile : [email protected]
Format settings, CABAC : Yes
Format settings, ReFrames : 12 frames
Codec ID : V_MPEG4/ISO/AVC
Duration : 1h 30mn
Bit rate : 2 210 Kbps
Width : 1 024 pixels
Height : 576 pixels
Display aspect ratio : 16:9
Frame rate mode : Constant
Frame rate : 23.976 fps
Color space : YUV
Chroma subsampling : 4:2:0
Bit depth : 8 bits
Scan type : Progressive
Bits/(Pixel*Frame) : 0.156
Stream size : 1.36 GiB (66%)
Writing library : x264 core 125 r2200 999b753
Encoding settings : cabac=1 / ref=12 / deblock=1:-3:-3 / analyse=0x3:0x113 / me=umh / subme=10 / psy=1 / psy_rd=1.00:0.00 / mixed_ref=1 / me_range=38 / chroma_me=1 / trellis=2 / 8x8dct=1 / cqm=0 / deadzone=21,11 / fast_pskip=1 / chroma_qp_offset=-2 / threads=15 / lookahead_threads=2 / sliced_threads=0 / nr=0 / decimate=1 / interlaced=0 / bluray_compat=0 / constrained_intra=0 / bframes=11 / b_pyramid=2 / b_adapt=1 / b_bias=0 / direct=3 / weightb=1 / open_gop=0 / weightp=2 / keyint=240 / keyint_min=23 / scenecut=40 / intra_refresh=0 / rc=2pass / mbtree=0 / bitrate=2210 / ratetol=1.0 / qcomp=0.60 / qpmin=10 / qpmax=51 / qpstep=4 / cplxblur=20.0 / qblur=0.5 / ip_ratio=1.40 / pb_ratio=1.30 / aq=1:1.00
Default : Yes
Forced : No
Audio #2
ID : 2
Format : AC-3
Format/Info : Audio Coding 3
Mode extension : CM (complete main)
Format settings, Endianness : Big
Codec ID : A_AC3
Duration : 1h 30mn
Bit rate mode : Constant
Bit rate : 448 Kbps
Channel(s) : 6 channels
Channel positions : Front: L C R, Side: L R, LFE
Sampling rate : 48.0 KHz
Bit depth : 16 bits
Compression mode : Lossy
Stream size : 291 MiB (14%)
Title : Äóáëÿæ
Language : Russian
Default : Yes
Forced : No
Audio #3
ID : 3
Format : AC-3
Format/Info : Audio Coding 3
Mode extension : CM (complete main)
Format settings, Endianness : Big
Codec ID : A_AC3
Duration : 1h 30mn
Bit rate mode : Constant
Bit rate : 384 Kbps
Channel(s) : 6 channels
Channel positions : Front: L C R, Side: L R, LFE
Sampling rate : 48.0 KHz
Bit depth : 16 bits
Compression mode : Lossy
Delay relative to video : 54s 0ms
Stream size : 249 MiB (12%)
Title : Ìíîãîãîëîñûé çàêàäðîâûé (Íîâûé Êàíàë)
Language : Ukrainian
Default : No
Forced : No
Audio #4
ID : 4
Format : AC-3
Format/Info : Audio Coding 3
Mode extension : CM (complete main)
Format settings, Endianness : Big
Codec ID : A_AC3
Duration : 1h 30mn
Bit rate mode : Constant
Bit rate : 192 Kbps
Channel(s) : 2 channels
Channel positions : Front: L R
Sampling rate : 48.0 KHz
Bit depth : 16 bits
Compression mode : Lossy
Stream size : 125 MiB (6%)
Title : Îðèãèíàë
Language : English
Default : No
Forced : No
Text #5
ID : 5
Format : UTF-8
Codec ID : S_TEXT/UTF8
Codec ID/Info : UTF-8 Plain Text
Language : Russian
Default : No
Forced : No
Text #6
ID : 6
Format : UTF-8
Codec ID : S_TEXT/UTF8
Codec ID/Info : UTF-8 Plain Text
Language : English
Default : Yes
Forced : No
-

Скриншоты






Последний раз редактировалось: zverblackboxfinder (2014-04-19 11:24), всего редактировалось 3 раз(а)

Создавать темы 18-Апр-2014 13:57

[Профиль]  [ЛС] 

Grock

Стаж: 6 лет 7 месяцев

Сообщений: 637

Симпатии: 113

zverblackboxfinder, Для видео- укажите следующие данные:
значение видеобитрейта (kbps) и частоту кадров в секунду (fps)
Для аудио - укажите:
количество аудиоканалов (ch) для каждой из дорожек.

Создавать темы 19-Апр-2014 00:40

[Профиль]  [ЛС] 

taito

Стаж: 4 года 5 месяцев

Сообщений: 25

супер мега крутой фильм!!!!!!спасибо за раздачу!!!!!особенно в HD!!!!

Создавать темы 20-Июн-2014 23:42

[Профиль]  [ЛС] 

taito

Стаж: 4 года 5 месяцев

Сообщений: 25

скорости бы добавить........

Создавать темы 20-Июн-2014 23:43

[Профиль]  [ЛС] 
Показать сообщения:    
Ответить на тему

Текущее время: 24-Сен 19:09

Часовой пояс: UTC + 5



Вы не можете начинать темы
Вы не можете отвечать на сообщения
Вы не можете редактировать свои сообщения
Вы не можете удалять свои сообщения
Вы не можете голосовать в опросах
Вы не можете прикреплять файлы к сообщениям
Вы не можете скачивать файлы