Фарго / Fargo / Сезон: 1 полный / Серии: 1-10 из 10 (Мэтт Шекман, Скотт Уинант, Адам Бернштейн) [2014 г., драма, криминал, WEB-DLRip] MVO [LostFilm]

Страницы :  1, 2  След.

Ответить на тему
 

saidali ®

Стаж: 5 лет 10 месяцев

Сообщений: 868

Симпатии: 554

-$ ФАРГО $- Информация о фильме:
✦ Название: Фарго
✦ Оригинальное название: Fargo
✦ Год выхода: 2014
✦ Жанр: Драма, криминал
✦ Режиссер: Мэтт Шекман, Скотт Уинант, Адам Бернштейн
✦ В ролях: Мартин Фриман, Билли Боб Торнтон, Боб Оденкерк, Джули Энн Эмери, Колин Хэнкс, Джои Кинг, Оливер Платт, Кейт Уолш, Джошуа Клоуз, Спенсер Древер

Описание фильма:
В центре сюжета — страховой агент Лестер Нигард (Мартин Фриман), который влачит свое сонное существование, выполняя нудную работу для скучных людей. Внезапно судьба сводит его с Лорном Малво (Билли Боб Торнтон) — странным бродягой, уже успевшим заработать себе репутацию жестокого и опасного человека. Именно через призму взаимоотношений этих столь разных персонажей создатели сериала расскажут историю, щедро сдобренную неповторимым черным юмором. Однако на этой необычной парочке свет клином не сходится. Куда интереснее будет узнать, какое отношение они имеют к череде нескольких дерзких преступлений, захлестнувших тихий городок Фарго.
Сериал снят по мотивам знаменитого фильма братьев Коэнов "Фарго" 1995 г.

 -✦ Страна: США
✦ Продолжительность: ~ 01:10:00 серия
✦ Перевод: профессиональный (многоголосый, закадровый)
- LostFilm

Информация о файле:
✦ Кодек: XviD
✦ Формат: AVI
✦ Качество: WEB-DLRip
✦ Видео: ~ 1300 kbps, 720x400
✦ Аудио RU: mp3, 2 ch, 192 kbps
✦ Субтитры: нет

Скриншоты

Media Info

General
Complete name : D:\Фильмы\Сериалы\Fargo (Season 1) LostFilm.TV\Fargo.S01E01.rus.LostFilm.TV.avi
Format : AVI
Format/Info : Audio Video Interleave
File size : 734 MiB
Duration : 1h 10mn
Overall bit rate mode : Variable
Overall bit rate : 1 466 Kbps
Writing application : Nandub v1.0rc2
Writing library : Nandub build 1853/release
Video
ID : 0
Format : MPEG-4 Visual
Format profile : [email protected]
Format settings, BVOP : No
Format settings, QPel : No
Format settings, GMC : No warppoints
Format settings, Matrix : Default (H.263)
Codec ID : XVID
Codec ID/Hint : XviD
Duration : 1h 10mn
Bit rate : 1 269 Kbps
Width : 720 pixels
Height : 400 pixels
Display aspect ratio : 16:9
Frame rate : 23.976 fps
Color space : YUV
Chroma subsampling : 4:2:0
Bit depth : 8 bits
Scan type : Progressive
Compression mode : Lossy
Bits/(Pixel*Frame) : 0.184
Stream size : 636 MiB (87%)
Writing library : XviD 1.2.1 (UTC 2008-12-04)
Audio
ID : 1
Format : MPEG Audio
Format version : Version 1
Format profile : Layer 3
Mode : Joint stereo
Mode extension : MS Stereo
Codec ID : 55
Codec ID/Hint : MP3
Duration : 1h 10mn
Bit rate mode : Variable
Bit rate : 192 Kbps
Channel count : 2 channels
Sampling rate : 48.0 KHz
Compression mode : Lossy
Stream size : 92.0 MiB (13%)
Alignment : Aligned on interleaves
Interleave, duration : 24 ms (0.58 video frame)
Interleave, preload duration : 514 ms
Writing library : LAME3.97b
Encoding settings : -m j -V 4 -q 3 -lowpass 18.6 --abr 192

Раздача ведётся путём добавления новых серий

Раздача ведётся путём добавления новых серий; при каждом добавлении создаётся новый торрент. Чтобы начать докачку новой серии, пользователям необходимо сделать следующее:
(1) остановить скачивание,
(2) удалить старый торрент у себя из клиента (старые серии удалять не надо),
(3) скачать новый торрент и запустить его у себя в клиенте вместо старого, при этом указать клиенту путь в старую папку куда и должно происходить скачивание новых серий.
Ваш клиент при этом должен произвести хеширование (проверку) старой папки (если не производит сам - помогите ему сделать это), и будет докачивать только те серии которых у вас ещё нет. Старые серии при этом не удаляются, а продолжают раздаваться!
Eсли вы уже удалили старые серии, то предотвратить повторную закачку старых серий можно, отжав галочку в соответствующих местах при запуске нового торрента. По возможности, желательно не удалять старые серии как можно дольше чтобы релизёр не столько продолжал раздавать старые серии, а смог сконцентрироваться на новых.

График выхода новых серий в оригинале

1.01. 15.04.2014 Дилемма крокодила (The Crocodile's Dilemma)
1.02. 22.04.2014 The Rooster Prince
1.03. 29.04.2014 A Muddy Road
1.04. 06.05.2014 Eating the Blame
1.05. 13.05.2014 The Six Ungraspables
1.06. 20.05.2014
1.07. 27.05.2014
1.08. 03.06.2014
1.09. 10.06.2014
1.10. 17.06.2014


Последний раз редактировалось: saidali (2014-06-25 13:37), всего редактировалось 17 раз(а)

Создавать темы 19-Апр-2014 01:16

[Профиль]  [ЛС] 

saidali ®

Стаж: 5 лет 10 месяцев

Сообщений: 868

Симпатии: 554

Качаем

Создавать темы 19-Апр-2014 01:17

[Профиль]  [ЛС] 

jamik_84

Стаж: 6 лет 7 месяцев

Сообщений: 24

Вот это рейтинг!!!

Создавать темы 19-Апр-2014 22:56

[Профиль]  [ЛС] 

Артемий

Стаж: 5 лет 3 месяца

Сообщений: 96

Симпатии: 6

Отличный пилот.

Создавать темы 21-Апр-2014 13:20

[Профиль]  [ЛС] 

saidali ®

Стаж: 5 лет 10 месяцев

Сообщений: 868

Симпатии: 554

Создавать темы 25-Апр-2014 07:52

[Профиль]  [ЛС] 

homebobur

Стаж: 5 лет 8 месяцев

Сообщений: 58

Симпатии: 64

А когда 3 серия тут появиться, т.к она уже вышла.

Создавать темы 02-Май-2014 00:17

[Профиль]  [ЛС] 

saidali ®

Стаж: 5 лет 10 месяцев

Сообщений: 868

Симпатии: 554

Создавать темы 03-Май-2014 09:18

[Профиль]  [ЛС] 

saidali ®

Стаж: 5 лет 10 месяцев

Сообщений: 868

Симпатии: 554

Создавать темы 10-Май-2014 08:45

[Профиль]  [ЛС] 

Sulaco

Стаж: 4 года 11 месяцев

Сообщений: 29

saidali, спасибо Вам большое! Сериал отличный!)

Создавать темы 11-Май-2014 00:05

[Профиль]  [ЛС] 

Mixer City

Стаж: 6 лет 11 месяцев

Сообщений: 754

Симпатии: 63

Вышла 5-я...

Создавать темы 16-Май-2014 11:04

[Профиль]  [ЛС] 

saidali ®

Стаж: 5 лет 10 месяцев

Сообщений: 868

Симпатии: 554

Создавать темы 17-Май-2014 10:34

[Профиль]  [ЛС] 

saidali ®

Стаж: 5 лет 10 месяцев

Сообщений: 868

Симпатии: 554

Создавать темы 23-Май-2014 19:43

[Профиль]  [ЛС] 

jamik_84

Стаж: 6 лет 7 месяцев

Сообщений: 24

у всех торможения звука в последней серии?

Создавать темы 25-Май-2014 00:21

[Профиль]  [ЛС] 

Mixer City

Стаж: 6 лет 11 месяцев

Сообщений: 754

Симпатии: 63

jamik_84, нет.

Создавать темы 25-Май-2014 19:26

[Профиль]  [ЛС] 

saidali ®

Стаж: 5 лет 10 месяцев

Сообщений: 868

Симпатии: 554

Создавать темы 31-Май-2014 16:33

[Профиль]  [ЛС] 
Показать сообщения:    
Ответить на тему

Текущее время: 18-Дек 00:44

Часовой пояс: UTC + 5



Вы не можете начинать темы
Вы не можете отвечать на сообщения
Вы не можете редактировать свои сообщения
Вы не можете удалять свои сообщения
Вы не можете голосовать в опросах
Вы не можете прикреплять файлы к сообщениям
Вы не можете скачивать файлы