Одержимая - The Devil inside (Уильям Брент Белл) [2012 г, Ужасы / Триллер, BDRip]

Ответить на тему
 

БЕГИ 1996 ®

Стаж: 4 года 2 месяца

Сообщений: 17

Симпатии: 15

Одержимая - The Devil inside
Год выпуска: 2012
Страна: США
Жанр: Триллер / Ужасы
Продолжительность: 01:23:10
Перевод: Профессиональный (полное дублирование)
Режиссер: Уильям Брент Белл
Сценарий: Уильям Брент Белл, Мэттью Питерман
Продюсер: Лоренцо Ди Бонавентура, Моррис Полсон, Мэттью Питерман
-
Премьера в мире: 5 января 2012
Бюджет: 1 000 000 $
Сборы в США 53 261 944 $
Сборы в мире + 48 496 546 $ = 101 758 490 $
-
В ролях: Фернанда Андраде, Саймон Куотерман, Ивэн Хельмут, Йонут Грама, Сюзен Краули, Бонни Морган, Брайан Джонсон, Престон Джеймс Хиллер, Д.Т. Карни, Мод Бонанни
Роли дублировали: Василиса Воронина, Евгений Вальц, Илья Исаев, Иван Жарков, Людмила Титова
Описание: В далеком 1989 году в службу 911 поступил звонок от Марии Росси, которая сообщила о том, что жестоко убила трех человек. 20 лет спустя, ее дочь Изабелла пытается выяснить, что же все-таки произошло с ее матерью. Она отправляется в клинику для душевнобольных преступников в Италии, где находится ее мать, которую считают душевнобольной и одержимой дьяволом. Изабелла обращается за помощью к двум молодым священникам, которые собираются изгнать дьявола из ее матери с помощью нетрадиционной методики, но им придется столкнуться с неведомым доселе злом, ведь Мария одержима сразу четырьмя мощными демонами…
-
Качество: BDRip
Формат: AVC (Advanced Video Codec)
Видео кодек: V_MPEG4/ISO/AVC
Аудио кодек: AAC (Advanced Audio Codec), DTS (Digital Theater Systems)
Видео: MPEG4 Video (H264) 1280x720 23.976 fps 448
Аудио #1: Dolby AC3 48000Hz 6ch. 448 kbps Dub.Russian
Аудио #2: DTS (Digital Theater Systems) 48000 Hz 6ch. 1 509 kbps English
Субтитр: S_TEXT/UTF8 Plain Text English

Медиа инфо

Video
ID : 1
Format : AVC
Format/Info : Advanced Video Codec
Format profile : [email protected]
Format settings, CABAC : Yes
Format settings, ReFrames : 9 frames
Codec ID : V_MPEG4/ISO/AVC
Duration : 1h 23mn
Bit rate : 7 115 Kbps
Width : 1 280 pixels
Height : 720 pixels
Display aspect ratio : 16:9
Frame rate mode : Constant
Frame rate : 23.976 fps
Color space : YUV
Chroma subsampling : 4:2:0
Bit depth : 8 bits
Scan type : Progressive
Bits/(Pixel*Frame) : 0.322
Stream size : 4.01 GiB (76%)
Writing library : x264 core 120 r2146 bcd41db
Encoding settings : cabac=1 / ref=9 / deblock=1:-3:-3 / analyse=0x3:0x113 / me=umh / subme=10 / psy=1 / psy_rd=1.10:0.15 / mixed_ref=1 / me_range=32 / chroma_me=1 / trellis=2 / 8x8dct=1 / cqm=0 / deadzone=21,11 / fast_pskip=0 / chroma_qp_offset=-2 / threads=12 / sliced_threads=0 / nr=0 / decimate=1 / interlaced=0 / bluray_compat=0 / constrained_intra=0 / bframes=6 / b_pyramid=2 / b_adapt=2 / b_bias=0 / direct=3 / weightb=1 / open_gop=0 / weightp=2 / keyint=250 / keyint_min=23 / scenecut=40 / intra_refresh=0 / rc_lookahead=60 / rc=2pass / mbtree=0 / bitrate=7115 / ratetol=1.0 / qcomp=0.60 / qpmin=0 / qpmax=69 / qpstep=4 / cplxblur=20.0 / qblur=0.5 / vbv_maxrate=40000 / vbv_bufsize=30000 / nal_hrd=none / ip_ratio=1.40 / pb_ratio=1.30 / aq=1:0.80
Language : English
Default : Yes
Forced : No
Audio #1
ID : 2
Format : AC-3
Format/Info : Audio Coding 3
Mode extension : CM (complete main)
Format settings, Endianness : Big
Codec ID : A_AC3
Duration : 1h 23mn
Bit rate mode : Constant
Bit rate : 448 Kbps
Channel count : 6 channels
Channel positions : Front: L C R, Side: L R, LFE
Sampling rate : 48.0 KHz
Bit depth : 16 bits
Compression mode : Lossy
Stream size : 267 MiB (5%)
Language : Russian
Default : Yes
Forced : No
Audio #2
ID : 3
Format : DTS
Format/Info : Digital Theater Systems
Mode : 16
Format settings, Endianness : Big
Codec ID : A_DTS
Duration : 1h 23mn
Bit rate mode : Constant
Bit rate : 1 509 Kbps
Channel count : 6 channels
Channel positions : Front: L C R, Side: L R, LFE
Sampling rate : 48.0 KHz
Bit depth : 24 bits
Compression mode : Lossy
Stream size : 898 MiB (17%)
Language : English
Default : No
Forced : No
Text #1
ID : 4
Format : UTF-8
Codec ID : S_TEXT/UTF8
Codec ID/Info : UTF-8 Plain Text
Title : SDH
Language : English
Default : Yes
Forced : No
Text #2
ID : 5
Format : UTF-8
Codec ID : S_TEXT/UTF8
Codec ID/Info : UTF-8 Plain Text
Language : English
Default : No
Forced : No

Скриншоты






Последний раз редактировалось: БЕГИ 1996 (2014-04-20 12:27), всего редактировалось 2 раз(а)

Создавать темы 19-Апр-2014 16:40

[Профиль]  [ЛС] 

Топик был перенесен из форума BD, BDRip в форум Зарубежное кино
Азиз87

Создавать темы 19-Апр-2014 16:44

 

Топик был перенесен из форума Зарубежное кино в форум HD-AVC
mp1988

Создавать темы 19-Апр-2014 19:47

 
Показать сообщения:    
Ответить на тему

Текущее время: 24-Сен 04:33

Часовой пояс: UTC + 5



Вы не можете начинать темы
Вы не можете отвечать на сообщения
Вы не можете редактировать свои сообщения
Вы не можете удалять свои сообщения
Вы не можете голосовать в опросах
Вы не можете прикреплять файлы к сообщениям
Вы не можете скачивать файлы