Замкнутая цепь / Closed Circuit (Джон Кроули) [2013, Детектив, драма, криминал, HDRip]

Ответить на тему
 

Каротажник ®

Стаж: 3 года 10 месяцев

Сообщений: 195

Симпатии: 211

Замкнутая цепь / Closed Circuit

Год выпуска: 2013
Страна: Великобритания, США
Жанр: Детектив, драма, криминал

Продолжительность: 01:32:05
Перевод: Любительский одноголосый (Дмитрий Виноградов.)
Субтитры: Русские, английские

Режиссёр: Джон Кроули
В ролях: Ребекка Холл, Кьяран Хайндс, Эрик Бана, Джим Бродбент, Джулия Стайлз, Риз Ахмед, Кеннет Крэнэм, Джемма Пауэлл, Барбора Бобулова, Крис Коулин, Ли Аскуит-Коу, Ли Николас Харрис

На повестке дня — борьба с терроризмом. Угроза очередного террористического выпада объединяет экс-любовников Клодию и Мартина, зачисленных в команду сопротивления злодеям. С риском для жизни они не только устраняют угрозу, но и проверяют, на фоне главных мировых достопримечательностей, угасли ли их романтические чувства или что-то ещё искрит.




Качество: HDRip
Формат: Avi

Видео: DivX 5 720x304 23.976fps 2290kbps
Аудио#1: AC3 48000Hz stereo 192kbps [готово (Audio 1)]
Аудио#2: AC3 48000Hz stereo 192kbps [1 (Audio 2)]

Media Info

Format : AVI
Format/Info : Audio Video Interleave
Format profile : OpenDML
Format settings : rec
File size : 1.80 GiB
Duration : 1h 36mn
Overall bit rate : 2 682 Kbps
Writing application : AVI-Mux GUI 1.17.8.3, Feb 16 201019:42:50
Video
ID : 0
Format : MPEG-4 Visual
Format profile : Advanced [email protected]
Format settings, BVOP : 2
Format settings, QPel : No
Format settings, GMC : No warppoints
Format settings, Matrix : Default (MPEG)
Codec ID : DX50
Codec ID/Hint : DivX 5
Duration : 1h 36mn
Bit rate : 2 291 Kbps
Width : 720 pixels
Height : 304 pixels
Display aspect ratio : 2.35:1
Frame rate : 23.976 fps
Color space : YUV
Chroma subsampling : 4:2:0
Bit depth : 8 bits
Scan type : Progressive
Compression mode : Lossy
Bits/(Pixel*Frame) : 0.437
Stream size : 1.54 GiB (85%)
Writing library : XviD 1.2.1 (UTC 2008-12-04)
Audio #1
ID : 1
Format : AC-3
Format/Info : Audio Coding 3
Mode extension : CM (complete main)
Format settings, Endianness : Big
Codec ID : 2000
Duration : 1h 36mn
Bit rate mode : Constant
Bit rate : 192 Kbps
Channel(s) : 2 channels
Channel positions : Front: L R
Sampling rate : 48.0 KHz
Bit depth : 16 bits
Compression mode : Lossy
Stream size : 132 MiB (7%)
Alignment : Aligned on interleaves
Interleave, duration : 64 ms (1.53 video frames)
Interleave, preload duration : 192 ms
Title : готово
Audio #2
ID : 2
Format : AC-3
Format/Info : Audio Coding 3
Mode extension : CM (complete main)
Format settings, Endianness : Big
Codec ID : 2000
Duration : 1h 36mn
Bit rate mode : Constant
Bit rate : 192 Kbps
Channel(s) : 2 channels
Channel positions : Front: L R
Sampling rate : 48.0 KHz
Bit depth : 16 bits
Compression mode : Lossy
Stream size : 132 MiB (7%)
Alignment : Aligned on interleaves
Interleave, duration : 64 ms (1.53 video frames)
Interleave, preload duration : 192 ms
Title : 1

Скриншоты


Создавать темы 20-Апр-2014 01:13

[Профиль]  [ЛС] 
Показать сообщения:    
Ответить на тему

Текущее время: 23-Авг 13:05

Часовой пояс: UTC + 5



Вы не можете начинать темы
Вы не можете отвечать на сообщения
Вы не можете редактировать свои сообщения
Вы не можете удалять свои сообщения
Вы не можете голосовать в опросах
Вы не можете прикреплять файлы к сообщениям
Вы не можете скачивать файлы