Ван Хельсинг / Van Helsing (Стивен Соммерс / Stephen Sommers) [2004 г., Фэнтези, Боевик, Триллер, Детектив, Приключения, BDRip]

Ответить на тему
 

Phantomhive ®

Стаж: 4 года 3 месяца

Сообщений: 218

Симпатии: 10

Ван Хельсинг / Van Helsing-«Adventure lives forever.»- Год выпуска: 2004
Страна: США, Чехия
Жанр: Фэнтези, Боевик, Триллер, Детектив, Приключения
Продолжительность: 02:11:37
Перевод: Профессиональный (полное дублирование)
Субтитры: нет-Режиссер: Стивен Соммерс / Stephen Sommers-В ролях: Хью Джекман (Hugh Jackman), Кейт Бекинсейл (Kate Beckinsale), Ричард Роксбург (Richard Roxburgh), Дэвид Уэнэм (David Wenham), Шулер Хенсли (Shuler Hensley), Елена Анайя (Elena Anaya), Уилл Кемп (Will Kemp), Кевин Дж. О’Коннор (Kevin J. O'Connor), Алан Армстронг (Alun Armstrong), Сильвия Коллока (Silvia Colloca), Джози Мэран (Josie Maran) и др.-Описание: Ван Хельсинг – орудие в руках церкви, по заданию святых отцов он истребляет чудовищ и монстров, от одного имени которых у обычных обывателей стынет кровь. Ван Хельсинг отправляет в Трансильванию, где обитает проклятье Карпат – граф Дракула, великий вампир, на которого не действует ни святая вода, ни крест, ни осиновый кол. Убить Дракулу можно лишь одним способом, но вампир надежно хранит эту тайну. На помощь Ван Хельсингу приходит Анна Валери, потомок человека, который поклялся что пока Дракула не умрет, никто из рода Валери не попадет в рай.-Качество: BDRip
Формат: MKV
Видео кодек: H.264
Аудио кодек: AC3
Видео: 1920x1040, x264, 23.976 fps, ~11000 kbit/s
Аудио: Русский AC3, 6ch 448 kbps; Английский AC3, 6ch 640 kbps-

Доп. информация

После съемок «Мумии» друзья постоянно подшучивали над Стивеном Соммерсом, спрашивая, когда он приступит к работе над «Дракулой». В конце концов Соммерс решил, что сможет раз и навсегда избавиться от насмешек, собрав всех монстров студии Юниверсал – Дракулу, Оборотня-Вервульфа и Франкенштейна – в одном фильме.
Оружейный арсенал Ван Хельсинга Стивен Соммерс любовно называл «монстробойками».
Соммерс с самого начала планировал взять на роль Ван Хельсинга именно Хью Джекмэна. «Женщины его полюбят, а мужчины ему поверят», - говорил режиссер.
Над созданием великолепных ландшафтов и пейзажей работала команда художников, которую составляли ровно 1 тысяча человек.
Самая большая декорация была построена при создании интерьеров замка Дракулы. Коридор ведущий в замок, вкупе с башнями и подвесным мостом, оказался настолько огромен, что не поместился в павильоне. Установив декорацию на улице съемочная группа была вынуждена работать по ночам, ведь согласно сценарию, все события в замке происходят после заката.
Сцену бала у Дракулы снимали в соборе Св. Николаса в Праге. Съемки в помещении, представляющем историческую ценность, накладывали определенные обязательства на съемочную группу. В частности, в соборе было необходимо поддерживать стабильно низкую температуру. «Я была удивлена, обнаружив, что на экране мы вовсе не выглядели посиневшими,» - вспоминает Кейт Бекинсейл.
Съемочная группа подчеркивает, что корова, уничтоженная одной из невест Дракулы, состоит не из мяса, а из килобайт.
Еще в 1994 году данный проект задумывался как сиквел к оригинальному фильму Брэма Стокера «Дракула», главную роль в котором должен был исполнить Энтони Хопкинс. Однако с тех пор утекло много воды, и первоначальный сценарий изменился до неузнаваемости.
* Хью Джекман снимался в двух фильмах одновременно: «Люди Икс 2» и «Ван Хельсинг». Причем, предпочтение было отдано именно «Ван Хельсингу». Неслучайно съемки одной из сцен «Людей Икс 2» были перенесены на тот промежуток времени, когда Хью получил выходной день на съемочной площадке «ВХ». Тем не менее, в мировой прокат «Ван Хельсинг» вышел на год позднее.
* Роль Карла по слухам должна была достаться Полу Хогану. Но в итоге Карлом был избран Дэвид Венхэм.
* Специально для исполнения роли Ван Хельсинга Хью Джекман получил в свое распоряжение солидную шевелюру.
* Оригинальный персонаж по фамилии Ван Хельсинг из «Дракулы» волею обстоятельств сменил свое имя с Абрахама на Гэбриель.
* Стивен Соммерс хотел пригласить Кейт Бекинсейл на роль Анны, но подумал, что персонаж слишком похож на ее роль в фильме «Другой мир» (2003), снимавшемся одновременно. Однако агент актрисы попросил режиссера просто послать ей сценарий, и Бекинсейл немедленно согласилась на роль.
* Роль Игоря была специально написана для близкого друга режиссера Кевина О’Коннора.
* Начало фильма совпадает с началом Невеста Франкенштейна (фильм, 1935), где также сгорает мельница, а создание Франкенштейна спасается в колодце.

MediaInfo

General
Unique ID : 177448294628674221163109433976347036539 (0x857F4C654A8CDF6FBC97C7746D520B7B)
Complete name : F:\Ван Хельсинг\Ван Хельсинг.mkv
Format : Matroska
Format version : Version 1
File size : 11.1 GiB
Duration : 2h 11mn
Overall bit rate : 12.1 Mbps
Movie name : -=HANSMER=-
Encoded date : UTC 2008-02-19 12:53:41
Writing application : mkvmerge v2.0.2 ('You're My Flame') built on Aug 15 2007 20:05:20
Writing library : libebml v0.7.7 + libmatroska v0.8.1
Video
ID : 1
Format : AVC
Format/Info : Advanced Video Codec
Format profile : [email protected]
Format settings, CABAC : Yes
Format settings, ReFrames : 9 frames
Codec ID : V_MPEG4/ISO/AVC
Duration : 2h 11mn
Bit rate : 11.0 Mbps
Width : 1 920 pixels
Height : 1 040 pixels
Display aspect ratio : 1.85:1
Frame rate mode : Constant
Frame rate : 23.976 fps
Color space : YUV
Chroma subsampling : 4:2:0
Bit depth : 8 bits
Scan type : Progressive
Bits/(Pixel*Frame) : 0.230
Stream size : 9.90 GiB (89%)
Title : Van Helsing 2004 HDDVD 1080p x264 AC3-AE
Writing library : x264 core 56 svn-680
Encoding settings : cabac=1 / ref=6 / deblock=1:1:1 / analyse=0x3:0x133 / me=umh / subme=7 / brdo=0 / mixed_ref=1 / me_range=16 / chroma_me=1 / trellis=1 / 8x8dct=1 / cqm=2 / deadzone=21,11 / chroma_qp_offset=0 / threads=3 / nr=0 / decimate=0 / mbaff=0 / bframes=3 / b_pyramid=1 / b_adapt=1 / b_bias=0 / direct=3 / wpredb=1 / bime=1 / keyint=250 / keyint_min=25 / scenecut=40(pre) / rc=2pass / bitrate=11000 / ratetol=1.0 / rceq='blurCplx^(1-qComp)' / qcomp=0.60 / qpmin=10 / qpmax=51 / qpstep=4 / cplxblur=20.0 / qblur=0.5 / ip_ratio=1.40 / pb_ratio=1.30
Language : English
Default : Yes
Forced : No
Audio #1
ID : 2
Format : AC-3
Format/Info : Audio Coding 3
Mode extension : CM (complete main)
Format settings, Endianness : Big
Codec ID : A_AC3
Duration : 2h 11mn
Bit rate mode : Constant
Bit rate : 448 Kbps
Channel(s) : 6 channels
Channel positions : Front: L C R, Side: L R, LFE
Sampling rate : 48.0 KHz
Bit depth : 16 bits
Compression mode : Lossy
Stream size : 422 MiB (4%)
Title : AC3, 6ch 448 kbps
Language : Russian
Default : Yes
Forced : No
Audio #2
ID : 3
Format : AC-3
Format/Info : Audio Coding 3
Mode extension : CM (complete main)
Format settings, Endianness : Big
Codec ID : A_AC3
Duration : 2h 11mn
Bit rate mode : Constant
Bit rate : 640 Kbps
Channel(s) : 6 channels
Channel positions : Front: L C R, Side: L R, LFE
Sampling rate : 48.0 KHz
Bit depth : 16 bits
Compression mode : Lossy
Stream size : 603 MiB (5%)
Title : AC3, 6ch 640 kbps
Language : English
Default : No
Forced : No

Скриншоты

Создавать темы 20-Апр-2014 02:42

[Профиль]  [ЛС] 

Phantomhive ®

Стаж: 4 года 3 месяца

Сообщений: 218

Симпатии: 10

Хороший фильм!!! Жал продолжение фильма нету!!!

Создавать темы 20-Апр-2014 02:45

[Профиль]  [ЛС] 

xan_uz

Стаж: 5 лет 7 месяцев

Сообщений: 24

Симпатии: 1

815422Хороший фильм!!! Жал продолжение фильма нету!!!
МДаааа! Нужно продолжение этому шедевру!

Создавать темы 20-Апр-2014 09:35

[Профиль]  [ЛС] 

титан

Стаж: 4 года 4 месяца

Сообщений: 27

Симпатии: 2

говорят будет

Создавать темы 20-Апр-2014 23:30

[Профиль]  [ЛС] 

Phantomhive ®

Стаж: 4 года 3 месяца

Сообщений: 218

Симпатии: 10

если будет тогда в 2016году!!
Но если чесно врятли снимут!!!!

Создавать темы 21-Апр-2014 05:51

[Профиль]  [ЛС] 

rafa2670

Стаж: 5 лет

Сообщений: 5

Телевизор Samsung 7 не хочет воспроизводить этот файл.Возможно из-за этого:
Format profile : [email protected]
Придётся конвертить.

Создавать темы 25-Апр-2014 17:55

[Профиль]  [ЛС] 

killer_said

Стаж: 6 лет 7 месяцев

Сообщений: 183

Симпатии: 54

Мне бы такую крылатую бабу

Создавать темы 31-Авг-2014 14:17

[Профиль]  [ЛС] 

Григорий К

Стаж: 5 лет

Сообщений: 569

Симпатии: 284

Уважаемые личеры, не ограничивайте скорость, пожалуйста. Я скачаю максимум этой раздачи в тасиксе, потом с внешки докачаю и вам до-раздам остаток. И все будут довольны. Просто 11 гигов больно много, чтоб всё с внешки качать.

Создавать темы 22-Окт-2014 15:14

[Профиль]  [ЛС] 

Kotiao

Стаж: 5 лет 8 месяцев

Сообщений: 11

дайте скорости пожалуйста, с раздачей потом помогу

Создавать темы 15-Янв-2016 22:21

[Профиль]  [ЛС] 

Musurmon

Стаж: 6 лет 9 месяцев

Сообщений: 11

Симпатии: 2

Kotiao, раздача мертвая по ищите на другом трекерах

Создавать темы 18-Янв-2016 03:19

[Профиль]  [ЛС] 

Musurmon

Стаж: 6 лет 9 месяцев

Сообщений: 11

Симпатии: 2

позже ос вижу с новый библиотек ай

Создавать темы 18-Янв-2016 03:21

[Профиль]  [ЛС] 
Показать сообщения:    
Ответить на тему

Текущее время: 21-Сен 04:49

Часовой пояс: UTC + 5



Вы не можете начинать темы
Вы не можете отвечать на сообщения
Вы не можете редактировать свои сообщения
Вы не можете удалять свои сообщения
Вы не можете голосовать в опросах
Вы не можете прикреплять файлы к сообщениям
Вы не можете скачивать файлы