КВН-2014. Первая 1/4 финала [2014, юмор, тв-шоу, HDTVRip]

Ответить на тему
 

refantom ®

Стаж: 5 лет 10 месяцев

Сообщений: 195

Симпатии: 86

КВН-2014. Первая 1/4 финала
Год выпуска: 2014
Страна: Россия
Жанр: Тв-шоу, юмор
Продолжительность: 01:50:44
Перевод: Не требуется
Русские субтитры: нет
Дата эфира: 20.04.2014
Описание: Программа "КВН" является самой долгоживущей передачей отечественного телеэкрана. Впервые выйдя в эфир 8 ноября 1961 года, она стала легендой еще черно-белого телевидения. В 1986 году "КВН" вновь появился на экране после 14-летнего перерыва и практически сразу вернул себе былую популярность. Сегодня телевизионная программа "КВН" - это вершина огромного айсберга, который представляет из себя Международный Союз КВН, включающий в себя более двух десятков официальных подготовительных Лиг и сотни региональных чемпионатов. Именно в этой передаче участвуют лучшие команды Клуба Веселых и Находчивых.
Команды: "Азия MIX", Бишкек
Сборная города Мурманска
"Саратов", Саратов
"Союз", Тюменская область
"Молодость", Красноярск
качество: HDTVRip
Формат: AVI
Видео кодек: XVID
Аудио кодек: AC-3
Видео: MPEG-4 Visual (XviD), 720x400, 25.000 fps, 1700 Kbps
Аудио: AC-3 , 48.0 KHz, 384 Kbps

MI

General
Complete name                            : KVN.2014.5.igra.HDTVRip.avi
Format                                   : AVI
Format/Info                              : Audio Video Interleave
File size                                : 1.67 GiB
Duration                                 : 1h 54mn
Overall bit rate                         : 2 093 Kbps
Writing application                      : VirtualDubMod 1.5.10.3 | www.virtualdub-fr.org || (build 2550/release)
Writing library                          : VirtualDubMod build 2550/release
Video
ID                                       : 0
Format                                   : MPEG-4 Visual
Format profile                           : Advanced [email protected]
Format settings, BVOP                    : 1
Format settings, QPel                    : No
Format settings, GMC                     : No warppoints
Format settings, Matrix                  : Default (MPEG)
Muxing mode                              : Packed bitstream
Codec ID                                 : XVID
Codec ID/Hint                            : XviD
Duration                                 : 1h 54mn
Bit rate                                 : 1 700 Kbps
Width                                    : 720 pixels
Height                                   : 400 pixels
Display aspect ratio                     : 16:9
Frame rate                               : 25.000 fps
Color space                              : YUV
Chroma subsampling                       : 4:2:0
Bit depth                                : 8 bits
Scan type                                : Progressive
Compression mode                         : Lossy
Bits/(Pixel*Frame)                       : 0.236
Stream size                              : 1.35 GiB (81%)
Writing library                          : XviD 1.2.1 (UTC 2008-12-04)
Audio
ID                                       : 1
Format                                   : AC-3
Format/Info                              : Audio Coding 3
Mode extension                           : CM (complete main)
Format settings, Endianness              : Big
Codec ID                                 : 2000
Duration                                 : 1h 54mn
Bit rate mode                            : Constant
Bit rate                                 : 384 Kbps
Channel count                            : 6 channels
Channel positions                        : Front: L C R, Side: L R, LFE
Sampling rate                            : 48.0 KHz
Bit depth                                : 16 bits
Compression mode                         : Lossy
Stream size                              : 313 MiB (18%)
Alignment                                : Split accross interleaves
Interleave, duration                     : 40 ms (1.00 video frame)
Interleave, preload duration             : 500 ms

Скриншоты


_________________
Подпись отключена за нарушение правил форума

Создавать темы 21-Апр-2014 10:38

[Профиль]  [ЛС] 

pirat

Стаж: 5 лет 7 месяцев

Сообщений: 216

Симпатии: 63

умораа нереальная)) много позитива))
спасибо автор.

Создавать темы 21-Апр-2014 18:55

[Профиль]  [ЛС] 

refantom ®

Стаж: 5 лет 10 месяцев

Сообщений: 195

Симпатии: 86

816325умораа нереальная)) много позитива))
спасибо автор.
На здоровье! Да, хорошая игра. Черт, подумалось, глядя на КВН-щиков: "Вот, бывает же талантливая молодежь! Остроумная, увлеченная, энергичная!

_________________
Подпись отключена за нарушение правил форума

Создавать темы 21-Апр-2014 20:17

[Профиль]  [ЛС] 

igor421974

Стаж: 4 года 2 месяца

Сообщений: 1

Дайте скорость,ставьте на раздачу

Создавать темы 22-Апр-2014 17:34

[Профиль]  [ЛС] 

thomasz

Стаж: 4 года 5 месяцев

Сообщений: 40

Симпатии: 4

816384
816325умораа нереальная)) много позитива))
спасибо автор.
На здоровье! Да, хорошая игра. Черт, подумалось, глядя на КВН-щиков: "Вот, бывает же талантливая молодежь! Остроумная, увлеченная, энергичная!
им за 25-28 какая молодёжь?

Создавать темы 25-Апр-2014 22:37

[Профиль]  [ЛС] 

refantom ®

Стаж: 5 лет 10 месяцев

Сообщений: 195

Симпатии: 86

Не вижу противоречий...
Возрастные рамки, позволяющие относить людей к молодёжи, различаются в зависимости от конкретной страны. Нижняя возрастная граница молодёжи устанавливается между 14 и 16, верхняя — между 25 и 30 и более годами, 36 годами включительно по современной классификации возрастных периодов Квинна

_________________
Подпись отключена за нарушение правил форума

Создавать темы 28-Апр-2014 13:04

[Профиль]  [ЛС] 

nigga22480

Стаж: 7 лет 7 месяцев

Сообщений: 211

Симпатии: 13

Никто не знает когда следующие серии выйдут?

Создавать темы 21-Май-2014 13:09

[Профиль]  [ЛС] 

Desertboy

Стаж: 8 лет

Сообщений: 96

Симпатии: 2

831778Никто не знает когда следующие серии выйдут?
amik.ru

Создавать темы 21-Май-2014 14:59

[Профиль]  [ЛС] 
Показать сообщения:    
Ответить на тему

Текущее время: 16-Дек 23:53

Часовой пояс: UTC + 5



Вы не можете начинать темы
Вы не можете отвечать на сообщения
Вы не можете редактировать свои сообщения
Вы не можете удалять свои сообщения
Вы не можете голосовать в опросах
Вы не можете прикреплять файлы к сообщениям
Вы не можете скачивать файлы