(Progressive House / Progressive Trance) [CD] Moonbeam - Space Odyssey: Mars - 2014, FLAC (image+.cue), lossless

Ответить на тему
 

Admin ®

Стаж: 5 лет 7 месяцев

Сообщений: 580

Симпатии: 106

Moonbeam presents Space Odyssey: Mars Жанр: Progressive House / Progressive Trance
Носитель: CD
Страна-производитель диска: Россия
Год издания: 2014
Издатель (лейбл): Open Gate
Номер по каталогу: ПРЗ CD08647
Страна: Россия
Аудиокодек: FLAC (*.flac)
Тип рипа: image+.cue
Битрейт аудио: lossless
Продолжительность: 2:10:51
Источник (релизер): Собственный рип
Наличие сканов в содержимом раздачи: нет
Треклист:
CD1:
01. Moonbeam featuring Julia B - See The Difference Inside (Special Mars 2014 Remix)
02. Moonbeam - Mirrors
03. Cosmic Gate & Cary Brothers - Wake Your Mind (Extended Mix)
04. Moonbeam featuring Avis Vox - Twilight Is Coming
05. Hells Kitchen - Close Your Eyes (Original Mix)
06. Andain - You Once Told Me (Moonbeam Remix)
07. Progreg featuring Cary Less - Sing For You (Tvardovsky Remix)
08. Kiholm featuring Josh Money - Long Journey Home (Original Mix)
09. Moonbeam & Jan Zyabovski - Born To Scream
10. Andy Duguid & Audrey Gallagher - In This Moment (Original Mix)
11. Alessandro - Awake (Original Mix)
12. Mars Needs Lovers & Mmadcatz - Lovethief (Moonbeam Remix)
13. Fromance - Back To Earth
CD2:
01. 2Fashion - Such a Shame (Moonbeam Remix)
02. Indifferent Guy featuring Eva Pavlova - Danger (Original Mix)
03. Joshi - Raging Blue (Original Mix)
04. Myon & Shane 54 with Natalie Peris - Outshine (Nigel Good Remix)
05. Da Fresh featuring Blackfeel Wite - Angel (Moonbeam Remix)
06. Orbik - If It's Love (Original Mix)
07. Julie Thompson with Super8 & Tab - Your Secret’s Safe (Jaytech Remix)
08. Mier - Twisted Mind (Original Mix)
09. Matt Fax - Morevenin (Remode Mix)
10. qoob - Apollo-17
11. Vian Pelez - The Fountain (Extended Mix)
12. Tom Cloud & Antonia Lucas - Do It Over (Kris O'Neil Remix)
13. Marsbeing - Fancy

Лог создания рипа

CD1

Exact Audio Copy V1.0 beta 3 from 29. August 2011
Отчёт EAC об извлечении, выполненном 25. марта 2014, 15:39
Moonbeam Presents / Space Odyssey: Mars (CD1)
Дисковод: hp CDDVDW SU-208CB Adapter: 1 ID: 0
Режим чтения : Достоверность
Использование точного потока : Да
Отключение кэша аудио : Да
Использование указателей C2 : Нет
Коррекция смещения при чтении : 6
Способность читать области Lead-in и Lead-out : Нет
Заполнение пропущенных сэмплов тишиной : Да
Удаление блоков с тишиной в начале и конце : Нет
При вычислениях CRC использовались нулевые сэмплы : Да
Интерфейс : Встроенный Win32-интерфейс для Win NT/2000
Выходной формат : Пользовательский кодировщик
Выбранный битрейт : 128 kBit/s
Качество : Высокий
Добавление ID3-тега : Нет
Утилита сжатия : C:\Program Files (x86)\Exact Audio Copy\Flac\flac.exe
Дополнительные параметры : -V -8 -T "Date=%year%" -T "Genre=%genre%" %source%
TOC извлечённого CD
Трек | Старт | Длительность | Начальный сектор | Конечный сектор
---------------------------------------------------------------------
1 | 0:00.00 | 5:07.14 | 0 | 23038
2 | 5:07.14 | 5:38.29 | 23039 | 48417
3 | 10:45.43 | 6:54.15 | 48418 | 79482
4 | 17:39.58 | 4:05.29 | 79483 | 97886
5 | 21:45.12 | 4:45.05 | 97887 | 119266
6 | 26:30.17 | 5:13.35 | 119267 | 142776
7 | 31:43.52 | 4:56.63 | 142777 | 165039
8 | 36:40.40 | 3:48.57 | 165040 | 182196
9 | 40:29.22 | 5:00.00 | 182197 | 204696
10 | 45:29.22 | 5:36.73 | 204697 | 229969
11 | 51:06.20 | 5:38.46 | 229970 | 255365
12 | 56:44.66 | 5:29.63 | 255366 | 280103
13 | 62:14.54 | 3:44.51 | 280104 | 296954
Характеристики диапазона извлечения и сообщения об ошибках
Выбранный диапазон
Имя файла H:\Moonbeam presents Space Odyssey Mars (2014)\Moonbeam Presents - Space Odyssey - Mars (CD1).wav
Пиковый уровень 98.7 %
Скорость извлечения 2.0 X
Качество диапазона 99.9 %
CRC теста 0781C0EE
CRC копии 0781C0EE
Копирование... OK
Ошибок не произошло
Конец отчёта
==== Контрольная сумма отчёта 50CBA4E016E19C4BFC72AEEE5064F22EBE1CDA031717EFF316D36AD92F4552D4 ====

CD2

Exact Audio Copy V1.0 beta 3 from 29. August 2011
Отчёт EAC об извлечении, выполненном 25. марта 2014, 16:50
Moonbeam Presents / Space Odyssey: Mars (CD2)
Дисковод: hp CDDVDW SU-208CB Adapter: 1 ID: 0
Режим чтения : Достоверность
Использование точного потока : Да
Отключение кэша аудио : Да
Использование указателей C2 : Нет
Коррекция смещения при чтении : 6
Способность читать области Lead-in и Lead-out : Нет
Заполнение пропущенных сэмплов тишиной : Да
Удаление блоков с тишиной в начале и конце : Нет
При вычислениях CRC использовались нулевые сэмплы : Да
Интерфейс : Встроенный Win32-интерфейс для Win NT/2000
Выходной формат : Пользовательский кодировщик
Выбранный битрейт : 128 kBit/s
Качество : Высокий
Добавление ID3-тега : Нет
Утилита сжатия : C:\Program Files (x86)\Exact Audio Copy\Flac\flac.exe
Дополнительные параметры : -V -8 -T "Date=%year%" -T "Genre=%genre%" %source%
TOC извлечённого CD
Трек | Старт | Длительность | Начальный сектор | Конечный сектор
---------------------------------------------------------------------
1 | 0:00.00 | 6:24.53 | 0 | 28852
2 | 6:24.53 | 4:04.67 | 28853 | 47219
3 | 10:29.45 | 4:29.04 | 47220 | 67398
4 | 14:58.49 | 4:35.40 | 67399 | 88063
5 | 19:34.14 | 4:49.40 | 88064 | 109778
6 | 24:23.54 | 3:00.24 | 109779 | 123302
7 | 27:24.03 | 5:30.00 | 123303 | 148052
8 | 32:54.03 | 5:07.00 | 148053 | 171077
9 | 38:01.03 | 5:00.59 | 171078 | 193636
10 | 43:01.62 | 5:59.21 | 193637 | 220582
11 | 49:01.08 | 5:00.21 | 220583 | 243103
12 | 54:01.29 | 5:14.49 | 243104 | 266702
13 | 59:16.03 | 5:36.36 | 266703 | 291938
Характеристики диапазона извлечения и сообщения об ошибках
Выбранный диапазон
Имя файла H:\Moonbeam presents Space Odyssey Mars (2014)\Moonbeam Presents - Space Odyssey - Mars (CD2).wav
Пиковый уровень 98.7 %
Скорость извлечения 2.0 X
Качество диапазона 100.0 %
CRC теста 5ED8892F
CRC копии 5ED8892F
Копирование... OK
Ошибок не произошло
Конец отчёта
==== Контрольная сумма отчёта E95838A286ED230BC840BD5AE7414429242EA90DC3CD45EA1229797F3433A8B1 ====

Содержание индексной карты (.CUE)

CD1

REM GENRE "Progressive House / Progressive Trance"
REM DATE 2014
REM DISCID A00F770D
REM COMMENT "ExactAudioCopy v1.0b3"
PERFORMER "Moonbeam Presents"
TITLE "Space Odyssey: Mars (CD1)"
FILE "Moonbeam Presents - Space Odyssey - Mars (CD1).flac" WAVE
TRACK 01 AUDIO
TITLE "See The Difference Inside (Special Mars 2014 Remix)"
PERFORMER "Moonbeam featuring Julia B"
FLAGS DCP
INDEX 01 00:00:00
TRACK 02 AUDIO
TITLE "Mirrors"
PERFORMER "Moonbeam"
FLAGS DCP
INDEX 01 05:07:14
TRACK 03 AUDIO
TITLE "Wake Your Mind (Extended Mix)"
PERFORMER "Cosmic Gate & Cary Brothers"
FLAGS DCP
INDEX 01 10:45:43
TRACK 04 AUDIO
TITLE "Twilight Is Coming"
PERFORMER "Moonbeam featuring Avis Vox"
FLAGS DCP
INDEX 01 17:39:58
TRACK 05 AUDIO
TITLE "Close Your Eyes (Original Mix)"
PERFORMER "Hells Kitchen"
FLAGS DCP
INDEX 01 21:45:12
TRACK 06 AUDIO
TITLE "You Once Told Me (Moonbeam Remix)"
PERFORMER "Andain"
FLAGS DCP
INDEX 01 26:30:17
TRACK 07 AUDIO
TITLE "Sing For You (Tvardovsky Remix)"
PERFORMER "Progreg featuring Cary Less"
FLAGS DCP
INDEX 01 31:43:52
TRACK 08 AUDIO
TITLE "Long Journey Home (Original Mix)"
PERFORMER "Kiholm featuring Josh Money"
FLAGS DCP
INDEX 01 36:40:40
TRACK 09 AUDIO
TITLE "Born To Scream"
PERFORMER "Moonbeam & Jan Zyabovski"
FLAGS DCP
INDEX 01 40:29:22
TRACK 10 AUDIO
TITLE "In This Moment (Original Mix)"
PERFORMER "Andy Duguid & Audrey Gallagher"
FLAGS DCP
INDEX 01 45:29:22
TRACK 11 AUDIO
TITLE "Awake (Original Mix)"
PERFORMER "Alessandro"
FLAGS DCP
INDEX 01 51:06:20
TRACK 12 AUDIO
TITLE "Lovethief (Moonbeam Remix)"
PERFORMER "Mars Needs Lovers & Mmadcatz"
FLAGS DCP
INDEX 01 56:44:66
TRACK 13 AUDIO
TITLE "Back To Earth"
PERFORMER "Fromance"
FLAGS DCP
INDEX 01 62:14:54

CD2

REM GENRE "Progressive House / Progressive Trance"
REM DATE 2014
REM DISCID C10F340D
REM COMMENT "ExactAudioCopy v1.0b3"
PERFORMER "Moonbeam Presents"
TITLE "Space Odyssey: Mars (CD2)"
FILE "Moonbeam Presents - Space Odyssey - Mars (CD2).flac" WAVE
TRACK 01 AUDIO
TITLE "Such a Shame (Moonbeam Remix)"
PERFORMER "2Fashion"
FLAGS DCP
INDEX 01 00:00:00
TRACK 02 AUDIO
TITLE "Danger (Original Mix)"
PERFORMER "Indifferent Guy featuring Eva Pavlova"
FLAGS DCP
INDEX 01 06:24:53
TRACK 03 AUDIO
TITLE "Raging Blue (Original Mix)"
PERFORMER "Joshi"
FLAGS DCP
INDEX 01 10:29:45
TRACK 04 AUDIO
TITLE "Outshine (Nigel Good Remix)"
PERFORMER "Myon & Shane 54 with Natalie Peris"
FLAGS DCP
INDEX 01 14:58:49
TRACK 05 AUDIO
TITLE "Angel (Moonbeam Remix)"
PERFORMER "Da Fresh featuring Blackfeel Wite"
FLAGS DCP
INDEX 01 19:34:14
TRACK 06 AUDIO
TITLE "If It's Love (Original Mix)"
PERFORMER "Orbik"
FLAGS DCP
INDEX 01 24:23:54
TRACK 07 AUDIO
TITLE "Your Secret’s Safe (Jaytech Remix)"
PERFORMER "Julie Thompson with Super8 & Tab"
FLAGS DCP
INDEX 01 27:24:03
TRACK 08 AUDIO
TITLE "Twisted Mind (Original Mix)"
PERFORMER "Mier"
FLAGS DCP
INDEX 01 32:54:03
TRACK 09 AUDIO
TITLE "Morevenin (Remode Mix)"
PERFORMER "Matt Fax"
FLAGS DCP
INDEX 01 38:01:03
TRACK 10 AUDIO
TITLE "Apollo-17"
PERFORMER "qoob"
FLAGS DCP
INDEX 01 43:01:62
TRACK 11 AUDIO
TITLE "The Fountain (Extended Mix)"
PERFORMER "Vian Pelez"
FLAGS DCP
INDEX 01 49:01:08
TRACK 12 AUDIO
TITLE "Do It Over (Kris O'Neil Remix)"
PERFORMER "Tom Cloud & Antonia Lucas"
FLAGS DCP
INDEX 01 54:01:29
TRACK 13 AUDIO
TITLE "Fancy"
PERFORMER "Marsbeing"
FLAGS DCP
INDEX 01 59:16:03

Создавать темы 22-Апр-2014 18:43

[Профиль]  [ЛС] 
Показать сообщения:    
Ответить на тему

Текущее время: 18-Авг 23:26

Часовой пояс: UTC + 5



Вы не можете начинать темы
Вы не можете отвечать на сообщения
Вы не можете редактировать свои сообщения
Вы не можете удалять свои сообщения
Вы не можете голосовать в опросах
Вы не можете прикреплять файлы к сообщениям
Вы не можете скачивать файлы