Вы не знаете Джека / You Don't Know Jack (Барри Левинсон / Barry Levinson) [2010, США, драма, биография, HDTVRip] MVO (1 канал)

Ответить на тему
 

Marti2013 ®

Стаж: 4 года 1 месяц

Сообщений: 45

Симпатии: 1

Вы не знаете джека / You Don't Know Jack
Страна: США
Студия: Bee Holder Productions, Cine Mosaic, HBO Films
Жанр: драма, биография
Год выпуска: 2010
Продолжительность: 02:14:28
Перевод: Профессиональный (многоголосый закадровый) 1 канал
Cубтитры: нет
Оригинальная аудиодорожка: нет
Режиссер: Барри Левинсон / Barry Levinson
В ролях: Аль Пачино, Дэнни Хьюстон, Сьюзен Сарандон, Джон Гудмен, Бренда Ваккаро, Джеймс Урбаняк, Рутанья Алда, Эрик Ланж, Делани Уильямс, Дирдри О`Коннелл
Описание: Фильм основан на реальных событиях. История о враче, поддерживающем идею легализации эвтаназии, и на деле помогавшем своим неизлечимо больным пациентам добровольно уйти из жизни
Идеи Кеворкяна были решительно осуждены врачебным сообществом и властями США. В 1991 Кеворкяна лишили лицензии на занятия медицинской практикой. Впоследствии он четырежды представал перед судом, однако был оправдан из-за недостаточности свидетельских показаний. В марте 1999 Джек Кеворкян был обвинён в убийстве второй степени, после того как осуществил эвтаназию 52-летнего Томаса Юка из округа Оуклэнд, страдавшего болезнью Лу Герига. В качестве неопровержимого доказательства стороны обвинения была представлена видеозапись совершения самого акта эвтаназии, которая, по воле самого Кеворкяна, находилась в свободном доступе. Решением суда Джек Кеворкян был приговорён к заключению сроком от 10 до 25 лет в исправительном учреждении штата Мичиган. 1 июня 2007 года, за хорошее поведение, решением Комиссии штата по условно-досрочному освобождению, 79-летний Джек Кеворкян был выпущен на свободу на два года раньше срока, с запретом помогать кому-либо умереть путём эвтаназии, осуществлять уход за лицами старше 62 лет и близко общаться с лицами, имеющими врождённые физические отклонения...
Качество видео: HDTVRip
Формат видео: AVI
Видео: Xvid 720x400 (16:9) 23.976fps Bit rate 1306Kbps b/p 0.189
Аудио: AC3 48.0KHz 2ch 224 Kbps

MediaInfo

Общее
Полное имя : E:\torrent\You.Dont.Know.Jack.2010.HDTVRip.1.kanal.avi
Формат : AVI
Формат/Информация : Audio Video Interleave
Размер файла : 1,45 Гбайт
Продолжительность : 2 ч. 14 м.
Общий поток : 1539 Кбит/сек
Библиотека кодирования : VirtualDub build 32842/release
Видео
Идентификатор : 0
Формат : MPEG-4 Visual
Профиль формата : Advanced [email protected]
Параметр BVOP формата : 2
Параметр QPel формата : Нет
Параметр GMC формата : Без точки перехода
Параметр матрицы формата : Default (H.263)
Идентификатор кодека : XVID
Идентификатор кодека/Подсказка : XviD
Продолжительность : 2 ч. 14 м.
Битрейт : 1306 Кбит/сек
Ширина : 720 пикселей
Высота : 400 пикселей
Соотношение сторон : 16:9
Частота кадров : 23,976 кадра/сек
Цветовое пространство : YUV
Субдискретизация насыщенности : 4:2:0
Битовая глубина : 8 бит
Тип развёртки : Прогрессивная
Метод сжатия : С потерями
Бит/(Пиксели*Кадры) : 0.189
Размер потока : 1,23 Гбайт (85%)
Библиотека кодирования : XviD 1.2.1 (UTC 2008-12-04)
Аудио
Идентификатор : 1
Формат : AC-3
Формат/Информация : Audio Coding 3
Расширение режима : CM (complete main)
Параметр Endianness формата : Big
Идентификатор кодека : 2000
Продолжительность : 2 ч. 14 м.
Вид битрейта : Постоянный
Битрейт : 224 Кбит/сек
Каналы : 2 канала
Расположение каналов : Front: L R
Частота : 48,0 КГц
Битовая глубина : 16 бит
Метод сжатия : С потерями
Размер потока : 215 Мбайт (15%)
Выравнивание : Соединение по промежуткам
Продолжительность промежутка : 42 мс. (1,00 видеокадр)
Время предзагрузки промежутка : 512 мс.

Скриншоты

Создавать темы 23-Апр-2014 14:41

[Профиль]  [ЛС] 

evil-tashkenta

Стаж: 5 лет 8 месяцев

Сообщений: 17

блин прочел и описание и уже нет смысла смотреть=)

Создавать темы 23-Апр-2014 20:16

[Профиль]  [ЛС] 

exteejay

Стаж: 5 лет

Сообщений: 5

дайте скрость

Создавать темы 15-Янв-2016 01:45

[Профиль]  [ЛС] 
Показать сообщения:    
Ответить на тему

Текущее время: 25-Сен 18:34

Часовой пояс: UTC + 5



Вы не можете начинать темы
Вы не можете отвечать на сообщения
Вы не можете редактировать свои сообщения
Вы не можете удалять свои сообщения
Вы не можете голосовать в опросах
Вы не можете прикреплять файлы к сообщениям
Вы не можете скачивать файлы