Ниже нуля / Below zero (Джастин Томас Остенсен) [2011, ужасы, триллер, DVDRip] MVO (Den904 & DeadSno) + AVO (Barin101)

Ответить на тему
 

2BubbLe ®

Стаж: 3 года 9 месяцев

Сообщений: 167

Симпатии: 12

Ниже нуля / Below zero-- Информация о фильме:
Страна: США, Канада
Жанр: ужасы, триллер
Год выпуска: 2011
Продолжительность: 01:38:10
Перевод 1: Любительский (двухголосый, закадровый) Den904 & DeadSno
Перевод 2: Одноголосый закадровый Barin101
Cубтитры: русские (Barin101), английские (Creech)
Оригинальная аудиодорожка: нет--Режиссер: Джастин Томас Остенсен--В ролях: Эдвард Ферлонг, Майкл Берриман, Кристин Бут, Ди Ханна, Майкл Эйснер, Сэйди Маду, Уизер...--Описание: Сюжет фильма построен вокруг сценариста по имени Джек, переживающего острый творческий кризис. Мечтая покончить с собой, писатель выбирает на редкость оригинальный способ: он запирается в холодильнике. С понижением температуры грань между реальностью и воображением стирается, и Джек с головой погружается в устрашающий мир собственных фантазий.--Рейтинг:
 --Файл:
Качество: DVDRip
Формат: AVI
Видео: XviD, 720x304, 1735 kbps, 0.313 bit/pixel
Аудио 1: AC3, 48 kHz, 2 ch, 192 kbps [Russian - Den904 & DeadSno]
Аудио 2: AC3, 48 kHz, 2 ch, 192 kbps [Russian - Barin101]
----

Mediainfo

General
Format : AVI
Format/Info : Audio Video Interleave
File size : 1.46 GiB
Duration : 1h 38mn
Overall bit rate : 2 133 Kbps
Writing application : VirtualDubMod 1.5.10.3 (build 2550/release)
Writing library : VirtualDubMod build 2550/release
Video
ID : 0
Format : MPEG-4 Visual
Format profile : Advanced [email protected]
Format settings, BVOP : 2
Format settings, QPel : No
Format settings, GMC : No warppoints
Format settings, Matrix : Default (MPEG)
Codec ID : XVID
Codec ID/Hint : XviD
Duration : 1h 38mn
Bit rate : 1 735 Kbps
Width : 720 pixels
Height : 304 pixels
Display aspect ratio : 2.35:1
Frame rate : 23.976 fps
Color space : YUV
Chroma subsampling : 4:2:0
Bit depth : 8 bits
Scan type : Progressive
Compression mode : Lossy
Bits/(Pixel*Frame) : 0.331
Stream size : 1.19 GiB (81%)
Writing library : XviD 1.2.1 (UTC 2008-12-04)
Audio #1
ID : 1
Format : AC-3
Format/Info : Audio Coding 3
Mode extension : CM (complete main)
Format settings, Endianness : Big
Codec ID : 2000
Duration : 1h 38mn
Bit rate mode : Constant
Bit rate : 192 Kbps
Channel(s) : 2 channels
Channel positions : Front: L R
Sampling rate : 48.0 KHz
Bit depth : 16 bits
Compression mode : Lossy
Stream size : 135 MiB (9%)
Alignment : Split accross interleaves
Interleave, duration : 42 ms (1.00 video frame)
Interleave, preload duration : 500 ms
Audio #2
ID : 2
Format : AC-3
Format/Info : Audio Coding 3
Mode extension : CM (complete main)
Format settings, Endianness : Big
Codec ID : 2000
Duration : 1h 38mn
Bit rate mode : Constant
Bit rate : 192 Kbps
Channel(s) : 2 channels
Channel positions : Front: L R
Sampling rate : 48.0 KHz
Bit depth : 16 bits
Compression mode : Lossy
Stream size : 135 MiB (9%)
Alignment : Split accross interleaves
Interleave, duration : 42 ms (1.00 video frame)
Interleave, preload duration : 500 ms

Скриншоты





Последний раз редактировалось: 2BubbLe (2014-04-24 12:31), всего редактировалось 1 раз

Создавать темы 24-Апр-2014 07:49

[Профиль]  [ЛС] 

Иви

Стаж: 5 лет 8 месяцев

Сообщений: 688

Симпатии: 65

оформите релиз

Создавать темы 24-Апр-2014 11:49

[Профиль]  [ЛС] 
Показать сообщения:    
Ответить на тему

Текущее время: 21-Сен 22:33

Часовой пояс: UTC + 5



Вы не можете начинать темы
Вы не можете отвечать на сообщения
Вы не можете редактировать свои сообщения
Вы не можете удалять свои сообщения
Вы не можете голосовать в опросах
Вы не можете прикреплять файлы к сообщениям
Вы не можете скачивать файлы