Осенняя кровь / Autumn Blood (Маркс Блундер) [2013 г., триллер, драма, DVDRip] DVO (DeadSno & den904) + Original Eng

Ответить на тему
 

2BubbLe ®

Стаж: 3 года 10 месяцев

Сообщений: 167

Симпатии: 12

Осенняя кровь / Autumn Blood-- Информация о фильме:
Страна: Австрия, США
Жанр: триллер, драма
Год выпуска: 2013
Продолжительность: 01:36:10
Перевод: Любительский (двухголосый закадровый) DeadSno & den904
Cубтитры: нет
Оригинальная аудиодорожка: английский--Режиссер: Маркс Блундер--В ролях: Софи Лоу, Петер Стормаре, Максимилиан Харниш, Густаф Скарсгард, Самули Ваурамо, Тим Мортен Аленброк, Анника, МакКрудден, Георг Ленц, Нэлли Швандтер, Жаклин Ле Сонье--Описание: После смерти матери её 16-летняя дочь и 10-летний сын остаются сиротами. Они лишь вдвоем живут на уединенной ферме высоко в горах, держа в тайне гибель своей мамы, боясь быть разлученными. Дети невинны и не знают о том, насколько могут быть жестоки люди, хотя мальчик и был свидетелем трагической гибели своего отца несколько лет назад в инциденте, связанном с мэром близлежащего городка. Но однажды в лесу девочка встречается с охотниками во главе с сыном того самого мэра...--Рейтинг:
 --Файл:
Качество: DVDRip
Формат: AVI
Видео: Xvid, 1574 Kbps, 720x304, 25fps
Аудио: AC3, 48000Hz, 192kbps, 2 ch - Русский
Аудио 2: AC3, 48000Hz, 448 Kbps, 6 ch - English----

MediaInfo

General
Complete name : \Autumn.Blood.2013.DVDRip.avi
Format : AVI
Format/Info : Audio Video Interleave
File size : 1.50 GiB
Duration : 1h 36mn
Overall bit rate : 2 228 Kbps
Writing application : VirtualDubMod 1.5.10.2 (build 2542/release)
Writing library : VirtualDubMod build 2542/release
Video
ID : 0
Format : MPEG-4 Visual
Format profile : Advanced [email protected]
Format settings, BVOP : Yes
Format settings, QPel : No
Format settings, GMC : No warppoints
Format settings, Matrix : Default (H.263)
Codec ID : XVID
Codec ID/Hint : XviD
Duration : 1h 36mn
Bit rate : 1 574 Kbps
Width : 720 pixels
Height : 304 pixels
Display aspect ratio : 2.35:1
Frame rate : 25.000 fps
Color space : YUV
Chroma subsampling : 4:2:0
Bit depth : 8 bits
Scan type : Progressive
Compression mode : Lossy
Bits/(Pixel*Frame) : 0.288
Stream size : 1.06 GiB (71%)
Writing library : XviD 1.2.1 (UTC 2008-12-04)
Audio #1
ID : 1
Format : AC-3
Format/Info : Audio Coding 3
Mode extension : CM (complete main)
Format settings, Endianness : Big
Codec ID : 2000
Duration : 1h 36mn
Bit rate mode : Constant
Bit rate : 192 Kbps
Channel count : 2 channels
Channel positions : Front: L R
Sampling rate : 48.0 KHz
Bit depth : 16 bits
Compression mode : Lossy
Stream size : 132 MiB (9%)
Alignment : Split accross interleaves
Interleave, duration : 40 ms (1.00 video frame)
Interleave, preload duration : 500 ms
Audio #2
ID : 2
Format : AC-3
Format/Info : Audio Coding 3
Mode extension : CM (complete main)
Format settings, Endianness : Big
Codec ID : 2000
Duration : 1h 36mn
Bit rate mode : Constant
Bit rate : 448 Kbps
Channel count : 6 channels
Channel positions : Front: L C R, Side: L R, LFE
Sampling rate : 48.0 KHz
Bit depth : 16 bits
Compression mode : Lossy
Stream size : 308 MiB (20%)
Alignment : Split accross interleaves
Interleave, duration : 40 ms (1.00 video frame)
Interleave, preload duration : 500 ms

Скриншоты





Последний раз редактировалось: 2BubbLe (2014-04-24 12:36), всего редактировалось 1 раз

Создавать темы 24-Апр-2014 07:50

[Профиль]  [ЛС] 

Ramilzver

Стаж: 7 лет 2 месяца

Сообщений: 115

Симпатии: 4

Выложите постер и скриншоты в тасиксе например http://img.tas-ix.net/

Создавать темы 24-Апр-2014 08:31

[Профиль]  [ЛС] 

Иви

Стаж: 5 лет 9 месяцев

Сообщений: 688

Симпатии: 65

оформите релиз

Создавать темы 24-Апр-2014 11:48

[Профиль]  [ЛС] 

Артемий

Стаж: 5 лет 1 месяц

Сообщений: 96

Симпатии: 6

Густаф Скарсгард
Это который в викингах Флоки играет, если не ошибаюсь...

Создавать темы 24-Апр-2014 15:28

[Профиль]  [ЛС] 
Показать сообщения:    
Ответить на тему

Текущее время: 18-Окт 10:40

Часовой пояс: UTC + 5



Вы не можете начинать темы
Вы не можете отвечать на сообщения
Вы не можете редактировать свои сообщения
Вы не можете удалять свои сообщения
Вы не можете голосовать в опросах
Вы не можете прикреплять файлы к сообщениям
Вы не можете скачивать файлы