(Видеоурок) Создание своих Сборок Windows 7, 8, 8.1 by Yagd

Ответить на тему
 

2BubbLe ®

Стаж: 3 года 9 месяцев

Сообщений: 167

Симпатии: 12

-(Видеоурок) Создание своих Сборок Windows 7, 8, 8.1 by Yagd- Автор (режиссер): Yagd
Название: Создание своих Сборок Windows 7, 8, 8.1
Год выпуска: 2013
Жанр: Видеоурок
Продолжительность: 01:55:00
Описание: Данный Видеоурок создан специально для тех кто устал постоянно скачивать немереное количество сборок, тестировать их и подбирать для себя оптимальный вариант. Посмотрев урок Вы сами сможете создавать качественные сборки Windows 7\8\8.1. Потратив всего 2 часа на обучение вы будете создавать сборки Windows как для себя так и для своих друзей! Удачи всем!
Данный пакет состоит из Видеоурока который разделен на 2 видеофайла, а также в нем находятся необходимые файлы для создания сборок!
Качество : DVD-Rip
Формат:AVI
Видео: DivX
Аудио: MP3
Видеокодек: DivX 5 1920x1080 29.97fps,3 444 Kbps
Аудиокодек:MP3 44100Hz stereo 128kbps

MI

Video
ID : 0
Format : MPEG-4 Visual
Format profile : [email protected]
Format settings, BVOP : No
Format settings, QPel : No
Format settings, GMC : No warppoints
Format settings, Matrix : Default (H.263)
Codec ID : DX50
Codec ID/Hint : DivX 5
Duration : 48mn 47s
Bit rate : 3 456 Kbps
Width : 1 920 pixels
Height : 1 080 pixels
Display aspect ratio : 16:9
Frame rate : 29.970 fps
Color space : YUV
Chroma subsampling : 4:2:0
Bit depth : 8 bits
Scan type : Progressive
Compression mode : Lossy
Bits/(Pixel*Frame) : 0.056
Stream size : 1.18 GiB (96%)
Writing library : Lavc54.86.100
Audio
ID : 1
Format : MPEG Audio
Format version : Version 1
Format profile : Layer 3
Mode : Joint stereo
Mode extension : MS Stereo
Codec ID : 55
Codec ID/Hint : MP3
Duration : 48mn 47s
Bit rate mode : Constant
Bit rate : 128 Kbps
Channel count : 2 channels
Sampling rate : 44.1 KHz
Compression mode : Lossy
Stream size : 44.7 MiB (4%)
Alignment : Aligned on interleaves
Interleave, duration : 26 ms (0.78 video frame)
Interleave, preload duration : 26 ms
Writing library : LAME3.98.4

Скриншоты



ссылка на сайт рутрекер (Видеоурок) Создание своих Сборок Windows 7, 8, 8.1 by Yagd


Последний раз редактировалось: 2BubbLe (2014-04-24 20:18), всего редактировалось 2 раз(а)

Создавать темы 24-Апр-2014 08:24

[Профиль]  [ЛС] 

Топик был перенесен из форума Видеоуроки в форум ОС и серверные программы Microsoft
nadezcda

Создавать темы 24-Апр-2014 09:51

 

kogagrig

Стаж: 6 лет 4 месяца

Сообщений: 119

Симпатии: 1

большое спасибо!!!! а как создать WPI нет??? если есть выложи пожалуйста. заранее благодарю, даже если нет

Создавать темы 24-Апр-2014 12:09

[Профиль]  [ЛС] 

2BubbLe ®

Стаж: 3 года 9 месяцев

Сообщений: 167

Симпатии: 12

kogagrig, я это скачал по просьбе одного человека если есть ссылка дайте скачаю мне не трудно

Создавать темы 24-Апр-2014 12:20

[Профиль]  [ЛС] 

kogagrig

Стаж: 6 лет 4 месяца

Сообщений: 119

Симпатии: 1

818354kogagrig, я это скачал по просьбе одного человека если есть ссылка дайте скачаю мне не трудно
извини, но ссылок нет. когда искал инструкции по созданию WPI, встречались только для тех кто что то смыслит в этом( имею виду взаимодействие компьютера и программ), а для чайников( по шагам и подробно) не встречал. а с видео я думаю смогу повторить. если встретишь залей. если нетрудно.

Создавать темы 24-Апр-2014 14:57

[Профиль]  [ЛС] 

demiart

Стаж: 5 лет 6 месяцев

Сообщений: 123

Симпатии: 1

2BubbLe, благодарю чувак! на wpi я дам ссылку ждите.

Создавать темы 24-Апр-2014 17:44

[Профиль]  [ЛС] 

kogagrig

Стаж: 6 лет 4 месяца

Сообщений: 119

Симпатии: 1

8184782BubbLe, благодарю чувак! на wpi я дам ссылку ждите.
спасибо большое!!!! ждем mb

Создавать темы 24-Апр-2014 18:12

[Профиль]  [ЛС] 

2BubbLe ®

Стаж: 3 года 9 месяцев

Сообщений: 167

Симпатии: 12

завтра все исправлю

Создавать темы 24-Апр-2014 18:43

[Профиль]  [ЛС] 

demiart

Стаж: 5 лет 6 месяцев

Сообщений: 123

Симпатии: 1

вот вам файлы для работы из этого урока http://www.dir.uz/95941

Создавать темы 07-Май-2014 12:41

[Профиль]  [ЛС] 
Показать сообщения:    
Ответить на тему

Текущее время: 22-Сен 11:27

Часовой пояс: UTC + 5



Вы не можете начинать темы
Вы не можете отвечать на сообщения
Вы не можете редактировать свои сообщения
Вы не можете удалять свои сообщения
Вы не можете голосовать в опросах
Вы не можете прикреплять файлы к сообщениям
Вы не можете скачивать файлы