Тёмное Дитя / Orphan Black / Сезон: 2 / Серии: 1-10 (10) (Джон Фоусет, Т.Дж. Скотт) (2014, фантастика, боевик, драма, WEB-DLRip] MVO (To4ka)

Ответить на тему
 

emilsky ®

Стаж: 7 лет 1 месяц

Сообщений: 2237

Симпатии: 610

Тёмное Дитя / Orphan Black--- Год выпуска: 2014
Страна: Канада | SPACE
Жанр: фантастика, боевик, драма
Продолжительность: ~00:44:00
Перевод: любителський многоголосый закадровый To4ka
Субтитры: нет-Режиссеры: Джон Фоусет, Т.Дж. Скотт и др.
В ролях: Татьяна Маслани, Джордан Джаварис, Дилан Брюс, Скайлер Уэкслер, Мария Дойл Кеннеди, Кевин Ханчард, Инга Кадранел, Рон Лиа, Майкл Мэндо, Дрю Дэвис и др.
Описание: Сара - изгой и сирота, чья жизнь круто меняет после того, как она становится свидетелем самоубийства женщины, которая как две капли воды похожа на нее. Сара выдает себя за погибшую, но вместо того, чтобы избавиться от проблем, она в них только глубже увязает. Девушка делает ошеломляющее открытие - они с умершей не просто похожи... они с ней ... и только ли они вдвоем?-Качество: WEB-DLRip
Формат: AVI
Видео кодек: XviD
Аудио кодек: MP3
Видео: 720x400 (16:9), 23.976 fps, 1176 kbps, 0.170 bit/pixel
Аудио 1: 48 kHz, 2 ch, 128 kbps - Russian
Аудио 2: 48 kHz, 2 ch, 128 kbps - English-Релиз:
по заказу GeneralFilm.
Озвучание: Андрей Хомяков, Ирина Грачева, Марина Комчарукова, Александр Нелюбин и Адам Шухарт.
Перевод: To4kaTranslate [Luizot, rummata, komcharukova, Fleur_de_Lotus, Saoirse].-

Список серий

2 - 1 Nature Under Constraint And Vexed
2 - 2 Governed By Sound Reason And True Religion
2 - 3 Mingling Its Own Nature With It
2 - 4 Governed As It Were By Chance
2 - 5 Ipsa Scientia Potestas Est
2 - 6 To Hound Nature In Her Wanderings
2 - 7 Knowledge of Causes, and Secret Motion of Things
2 - 8 Variable And Full Of Perturbation
2 - 9 Things Which Have Never Yet Been Done
2 - 10 By Means Which Have Never Yet Been Tried

Даты выхода

04. Governed As It Were By Chance / 10/May/2014
05. TBA / 17/May/2014

Скриншоты

MI

Общее:Формат : AVIФормат/Информация : Audio Video InterleaveРазмер файла : 450 МбайтПродолжительность : 43 м.Общий поток : 1446 Кбит/секПрограмма кодирования : VirtualDubModRus 1.5.10.2 (build 2542/release)Библиотека кодирования : VirtualDubMod build 2542/release
Видео:Формат : MPEG-4 VisualПрофиль формата : Advanced [email protected] BVOP формата : 1Параметр QPel формата : НетПараметр GMC формата : Без точки переходаПараметр матрицы формата : Default (MPEG)Идентификатор кодека : XVIDИдентификатор кодека/Подсказка : XviDПродолжительность : 43 м.Битрейт : 1176 Кбит/секШирина : 720 пикселейВысота : 400 пикселейСоотношение сторон : 16:9Частота кадров : 23,976 кадра/секЦветовое пространство : YUVСубдискретизация насыщенности : 4:2:0Битовая глубина : 8 битТип развёртки : ПрогрессивнаяМетод сжатия : С потерямиБит/(Пиксели*Кадры) : 0.170Размер потока : 366 Мбайт (81%)Библиотека кодирования : XviD 64
Аудио #1:Формат : MPEG AudioВерсия формата : Version 1Профиль формата : Layer 3Режим : Joint stereoРасширение режима : MS StereoИдентификатор кодека : 55Идентификатор кодека/Подсказка : MP3Продолжительность : 43 м.Вид битрейта : ПостоянныйБитрейт : 128 Кбит/секКаналы : 2 каналаЧастота : 48,0 КГцМетод сжатия : С потерямиРазмер потока : 39,9 Мбайт (9%)Выравнивание : Соединение по промежуткамПродолжительность промежутка : 42 мс. (1,00 видеокадр)Время предзагрузки промежутка : 504 мс.
Аудио #2:Формат : MPEG AudioВерсия формата : Version 1Профиль формата : Layer 3Режим : Joint stereoРасширение режима : MS StereoИдентификатор кодека : 55Идентификатор кодека/Подсказка : MP3Продолжительность : 43 м.Вид битрейта : ПостоянныйБитрейт : 128 Кбит/секКаналы : 2 каналаЧастота : 48,0 КГцМетод сжатия : С потерямиРазмер потока : 39,9 Мбайт (9%)Выравнивание : Соединение по промежуткамПродолжительность промежутка : 42 мс. (1,00 видеокадр)Время предзагрузки промежутка : 504 мс.

Внимание! Раздача ведётся путём добавления новых серий

Внимание! Раздача ведётся путём добавления новых серий; при каждом добавлении создаётся новый торрент. Чтобы начать докачку новой серии, пользователям необходимо сделать следующее:
(1) остановить скачивание,
(2) удалить старый торрент у себя из клиента (старые серии удалять не надо),
(3) скачать новый торрент и запустить его у себя в клиенте вместо старого, при этом указать клиенту путь в старую папку куда и должно происходить скачивание новых серий.
Ваш клиент при этом должен произвести хеширование (проверку) старой папки (если не производит сам - помогите ему сделать это), и будет докачивать только те серии которых у вас ещё нет. Старые серии при этом не удаляются, а продолжают раздаваться!
Eсли вы уже удалили старые серии, то предотвратить повторную закачку старых серий можно, отжав галочку в соответствующих местах при запуске нового торрента. По возможности, желательно не удалять старые серии как можно дольше чтобы релизёр не столько продолжал раздавать старые серии, а смог сконцентрироваться на новых.


Последний раз редактировалось: emilsky (2014-07-05 09:45), всего редактировалось 7 раз(а)

Создавать темы 24-Апр-2014 17:36

[Профиль]  [ЛС] 

Azikazik

Стаж: 4 года 3 месяца

Сообщений: 30

Долгожданное продолжение, спасибо за релиз!
Продолжай в таком же духе!

Создавать темы 28-Апр-2014 17:56

[Профиль]  [ЛС] 

emilsky ®

Стаж: 7 лет 1 месяц

Сообщений: 2237

Симпатии: 610

2 серия!

Создавать темы 29-Апр-2014 10:21

[Профиль]  [ЛС] 

emilsky ®

Стаж: 7 лет 1 месяц

Сообщений: 2237

Симпатии: 610

3 серия!

Создавать темы 06-Май-2014 10:29

[Профиль]  [ЛС] 

emilsky ®

Стаж: 7 лет 1 месяц

Сообщений: 2237

Симпатии: 610

2ой комп в раздачу!

Создавать темы 06-Май-2014 18:53

[Профиль]  [ЛС] 

emilsky ®

Стаж: 7 лет 1 месяц

Сообщений: 2237

Симпатии: 610

4 и 5 серия!

Создавать темы 20-Май-2014 17:27

[Профиль]  [ЛС] 

emilsky ®

Стаж: 7 лет 1 месяц

Сообщений: 2237

Симпатии: 610

6, 7, 8, 9 серии, футбольчик ну сами понимаете)

Создавать темы 20-Июн-2014 07:32

[Профиль]  [ЛС] 

jack-91

Стаж: 5 лет

Сообщений: 44

Симпатии: 1

Сиды встаньте на раздачу, пожалуйста! 4 серия только осталось скачать!!!

Создавать темы 27-Июн-2014 12:13

[Профиль]  [ЛС] 

emilsky ®

Стаж: 7 лет 1 месяц

Сообщений: 2237

Симпатии: 610

10 серия, финал!

Создавать темы 05-Июл-2014 09:45

[Профиль]  [ЛС] 
Показать сообщения:    
Ответить на тему

Текущее время: 19-Авг 20:03

Часовой пояс: UTC + 5



Вы не можете начинать темы
Вы не можете отвечать на сообщения
Вы не можете редактировать свои сообщения
Вы не можете удалять свои сообщения
Вы не можете голосовать в опросах
Вы не можете прикреплять файлы к сообщениям
Вы не можете скачивать файлы