Опрометчивый / HairBrained (Билли Кент / Billy Kent) [2013, США, Комедия, DVDRip] DVO (студия Elrom) + Original Eng

Ответить на тему
 

Suxrob89 ®

Стаж: 7 лет

Сообщений: 933

Симпатии: 564

-Опрометчивый / HairBrained- Страна: США
Жанр: Комедия
Год выпуска: 2013
Продолжительность: 01:33:06
Перевод: Профессиональный (двухголосый закадровый) студия Elrom
Cубтитры: нет
Оригинальная аудиодорожка: английский-Режиссер: Билли Кент / Billy Kent-В ролях: Алекс Вулф /Alex Wolff/, Брендан Фрейзер /Brendan Fraser/, Джулия Гарнер /Julia Garner/, Майкл Оберхольцер /Michael Oberholtzer/, Грета Ли /Greta Lee/, Тедди Бергман /Teddy Bergman/, Робин де Хесус /Robin de Jesus/, Элизабет Хауэр /Elisabeth Hower/, Хосефина Скальоне /Josefina Scaglione/, Фред Меламед /Fred Melamed/-Описание: Он гений. В свои 14 лет он уже закончил экстерном школу и пытался поступить в Гарвард, в который, по причине своего малолетства, не был принят. Но был принят в третесортный Уитмен колледж. Тут он и встречает другую крайность - первокурсника Лео, которому уже 41 год. Их поселили вместе в общаге, и таким, столь разным, людям предстоит стать друзьями...- -Качество видео: DVDRip
Формат видео: AVI
Видео: Xvid 720x400 25fps 1707Kbps
Аудио: Dolby AC3 48000Hz stereo 192kbps [rus]
Аудио 2: Dolby AC3 48000Hz stereo 192kbps [eng]

MediaInfo

General
Complete name : H:\HairBrained.2013\Oprometchivyj.2013.DVDrip.XviD.Rus-Eng.avi
Format : AVI
Format/Info : Audio Video Interleave
File size : 1.37 GiB
Duration : 1h 33mn
Overall bit rate : 2 105 Kbps
Movie name : Oprometchivyj.2013
Genre : Comedy / Drama
Law rating : Unrated
Copyright : 25KADR
Comment : DVO (ELROM studio)
Video
ID : 0
Format : MPEG-4 Visual
Format profile : Advanced [email protected]
Format settings, BVOP : Yes
Format settings, QPel : No
Format settings, GMC : No warppoints
Format settings, Matrix : Default (H.263)
Codec ID : XVID
Codec ID/Hint : XviD
Duration : 1h 33mn
Bit rate : 1 707 Kbps
Width : 720 pixels
Height : 400 pixels
Display aspect ratio : 16:9
Frame rate : 25.000 fps
Color space : YUV
Chroma subsampling : 4:2:0
Bit depth : 8 bits
Scan type : Progressive
Compression mode : Lossy
Bits/(Pixel*Frame) : 0.237
Stream size : 1.11 GiB (81%)
Writing library : XviD 64
Audio #1
ID : 1
Format : AC-3
Format/Info : Audio Coding 3
Mode extension : CM (complete main)
Format settings, Endianness : Big
Codec ID : 2000
Duration : 1h 33mn
Bit rate mode : Constant
Bit rate : 192 Kbps
Channel(s) : 2 channels
Channel positions : Front: L R
Sampling rate : 48.0 KHz
Bit depth : 16 bits
Compression mode : Lossy
Stream size : 128 MiB (9%)
Alignment : Split accross interleaves
Interleave, duration : 40 ms (1.00 video frame)
Interleave, preload duration : 500 ms
Language : Russian
Audio #2
ID : 2
Format : AC-3
Format/Info : Audio Coding 3
Mode extension : CM (complete main)
Format settings, Endianness : Big
Codec ID : 2000
Duration : 1h 33mn
Bit rate mode : Constant
Bit rate : 192 Kbps
Channel(s) : 2 channels
Channel positions : Front: L R
Sampling rate : 48.0 KHz
Bit depth : 16 bits
Compression mode : Lossy
Stream size : 128 MiB (9%)
Alignment : Split accross interleaves
Interleave, duration : 40 ms (1.00 video frame)
Interleave, preload duration : 500 ms

Скриншоты

Создавать темы 24-Апр-2014 23:43

[Профиль]  [ЛС] 

SNIL

Стаж: 5 лет 7 месяцев

Сообщений: 2624

Симпатии: 341

Как фильмец, стояший?

Создавать темы 25-Апр-2014 00:46

[Профиль]  [ЛС] 

Топик был перенесен из форума Фильмы за 2014 (новинки) в форум Фильмы за 2013
СтАсИкОс

Создавать темы 25-Апр-2014 00:47

 

Suxrob89 ®

Стаж: 7 лет

Сообщений: 933

Симпатии: 564

SNIL, Ещё не успел посмотреть

Создавать темы 25-Апр-2014 07:12

[Профиль]  [ЛС] 

Slapper

Стаж: 3 года 9 месяцев

Сообщений: 2193

Симпатии: 213

SNIL, очень хороший

Создавать темы 25-Апр-2014 08:23

[Профиль]  [ЛС] 

azuzin

Стаж: 5 лет 7 месяцев

Сообщений: 33

Симпатии: 3

Spasibo!!!

Создавать темы 25-Апр-2014 08:24

[Профиль]  [ЛС] 

hunter07

Стаж: 4 года 2 месяца

Сообщений: 15

Симпатии: 1

а что случилось? некачает...

Создавать темы 25-Апр-2014 12:34

[Профиль]  [ЛС] 

hunter07

Стаж: 4 года 2 месяца

Сообщений: 15

Симпатии: 1

Suxrob89, что означает DL???

Создавать темы 26-Апр-2014 00:10

[Профиль]  [ЛС] 

Heroes

Стаж: 5 лет 6 месяцев

Сообщений: 148

Симпатии: 3

не качает ! у всех так ?

Создавать темы 26-Апр-2014 22:59

[Профиль]  [ЛС] 

Villain

Стаж: 7 лет 2 месяца

Сообщений: 61

Симпатии: 2

ПОМОГИТЕ С РАЗДАЧЕЙ ПОЖАЛУЙСТА

Создавать темы 03-Июн-2014 12:14

[Профиль]  [ЛС] 

Slapper

Стаж: 3 года 9 месяцев

Сообщений: 2193

Симпатии: 213

819399Suxrob89, что означает DL???
смотря какого цвета.. если зеленого то значит этот файл уже скачан, если красный это значит в процессе, черный - это ваша раздача

Создавать темы 03-Июн-2014 13:10

[Профиль]  [ЛС] 
Показать сообщения:    
Ответить на тему

Текущее время: 23-Авг 03:34

Часовой пояс: UTC + 5



Вы не можете начинать темы
Вы не можете отвечать на сообщения
Вы не можете редактировать свои сообщения
Вы не можете удалять свои сообщения
Вы не можете голосовать в опросах
Вы не можете прикреплять файлы к сообщениям
Вы не можете скачивать файлы