Экзотические массажи мира: Чувственный массаж / Exotic massages world: Sensual Massage (Роберт Илинскас) [2009 г., Обучающее видео, массаж, DVDRip]

Ответить на тему
 

Asatulla ®

Стаж: 3 года 11 месяцев

Сообщений: 22

Симпатии: 1

Экзотические массажи мира: Чувственный массаж / Exotic massages world: Sensual Massage

Год выпуска: 2009
Страна: Россия
Жанр: Обучающее видео, массаж
Продолжительность: 00:57:33
Перевод: Не требуется
_____________________________________________________________________________________________________________________________________________________________________________________
Режиссер: Роберт Илинскас
Инструктор: Галина Илинска
_____________________________________________________________________________________________________________________________________________________________________________________
Описание: Чувственный массаж - это не просто набор определенных телодвижений и приемов, это искусство проявления чувственности, танец любви, медитация и прекрасное профилактическое средство для снятия стресса. В данной программе вы познакомитесь с чувственным массажем - массажем для удовольствия. Вы можете использовать в дальнейшем, увиденные в программе движения, разнообразные комбинации надавливаний, особые прикосновения. В зависимости от желания партнера движения могут отличаться различным ритмом, интенсивностью и могут меняться, и вы сможете создать свой неповторимый стиль.
Качество: DVDRip
Формат: AVI
Видео кодек: XviD
Аудио кодек: MP3
Видео: XviD, 640x480 25.00fps 1016 Kbps
Аудио: MPEG Audio Layer 3, 48000Hz stereo 185 kbps

MediaInfo

Format : AVI
Format/Info : Audio Video Interleave
File size : 500 MiB
Duration : 57mn 33s
Overall bit rate mode : Variable
Overall bit rate : 1 215 Kbps
Writing application : VirtualDubMod 1.5.10.2 (build 2540/release)
Writing library : VirtualDubMod build 2540/release
Video
ID : 0
Format : MPEG-4 Visual
Format profile : Advanced [email protected]
Format settings, BVOP : 2
Format settings, QPel : No
Format settings, GMC : No warppoints
Format settings, Matrix : Default (H.263)
Codec ID : XVID
Codec ID/Hint : XviD
Duration : 57mn 33s
Bit rate : 1 016 Kbps
Width : 640 pixels
Height : 480 pixels
Display aspect ratio : 4:3
Frame rate : 25.000 fps
Color space : YUV
Chroma subsampling : 4:2:0
Bit depth : 8 bits
Scan type : Progressive
Compression mode : Lossy
Bits/(Pixel*Frame) : 0.132
Stream size : 418 MiB (84%)
Writing library : XviD 1.2.1 (UTC 2008-12-04)
Audio
ID : 1
Format : MPEG Audio
Format version : Version 1
Format profile : Layer 3
Codec ID : 55
Codec ID/Hint : MP3
Duration : 57mn 32s
Bit rate mode : Variable
Bit rate : 192 Kbps
Channel(s) : 2 channels
Sampling rate : 48.0 KHz
Compression mode : Lossy
Stream size : 76.5 MiB (15%)
Alignment : Aligned on interleaves
Interleave, duration : 24 ms (0.60 video frame)
Interleave, preload duration : 99 ms
Writing library : LAME3.98r
Encoding settings : -m s -V 4 -q 2 -lowpass 18.6 --abr 192

Скриншоты

Создавать темы 26-Апр-2014 15:28

[Профиль]  [ЛС] 

Asatulla ®

Стаж: 3 года 11 месяцев

Сообщений: 22

Симпатии: 1

Это НЕ ЭРОТИКА и тем более ПОРНО!!! Это обучающее видео!

Создавать темы 26-Апр-2014 15:32

[Профиль]  [ЛС] 

Топик был перенесен из форума Арт-хаус и авторское кино в форум Документальные фильмы и телепередачи
Mixer City

Создавать темы 26-Апр-2014 18:51

 

Xoyze

Стаж: 5 лет 8 месяцев

Сообщений: 69

Симпатии: 2

Можете, дать больше скорости...
Спасибо!

Создавать темы 19-Июл-2014 08:48

[Профиль]  [ЛС] 
Показать сообщения:    
Ответить на тему

Текущее время: 23-Окт 01:43

Часовой пояс: UTC + 5



Вы не можете начинать темы
Вы не можете отвечать на сообщения
Вы не можете редактировать свои сообщения
Вы не можете удалять свои сообщения
Вы не можете голосовать в опросах
Вы не можете прикреплять файлы к сообщениям
Вы не можете скачивать файлы