PDJTV ONE - Ex-Driver [2014 г., Trance / Uplifting Trance, TeleSynch]

Ответить на тему
 

jetxz ®

Стаж: 4 года 1 месяц

Сообщений: 137

Симпатии: 2

PDJTV ONE - Ex-Driver
-Год выпуска: 2014
Страна: Russia
Жанр: Trance / Uplifting Trance
Продолжительность: 02:39:51-Описание: PDJTV — Это полноценный телевизионный канал, в полной мере раскрывающий тему диджеинга и отражающий текущие тенденции электронной танцевальной музыки-Качество: TeleSynch
Формат: MPEG-4
Аудио кодек: AC3
Видео: 1024x676 | avc1 | 2 323 Kbps | 27.881 fps
Аудио: AAC | 192 Kbps | 44.1 KHz | 2 channels-

Скриншоты

Треклист

01.Ex-Driver & Satelite - Falshback (Original Mix) [Discover White]
02.Gareth Emery feat. Bo Bruce – U (Bryan Kearney Remix) [Garuda]
03.John O'Callaghan featuring Erica Curran - I Believe (Giuseppe Ottaviani Remix) [Subcultutre]
04.Vladimir Bashmakov - I Remember You (Original Mix) [Armada]
05.Armin Van Buuren - This Is What Is Feels Like (Giuseppe Ottaviani remix) [Armind]
06.Abstract Vision & Elite Electronic - Conqueror (Original Mix) [Armada]
07.Photographer - Airport (Original Mix) [Monster Digital]
08.Simon Patterson feat. Lucy Pullin - The One (Original Mix) [Armind]
09.Armin Van Buuren - Who's Afraid of 138?! (Extended Mix) [Armada]
10.Chris Hampshire - Ninety Four (Ex-Driver remix) [Discover]
11.Lostly - If Not You, Who (Original Mix) [Discover]
12.Abstract Vision - Rocket (Photographer remix) [Unique Sense]
13.Martin Craynor - Like Minded (Original Mix) [Flux Delux]
14.Stan Wise - Dynamism (Original Mix) [Discover]
15.Second Sine - White House (Original Mix) [Discover]
16.Liam Wilson - Adventures In Stereo (Original Mix) [Discover White]
17.Ex-Driver & Allan Morrow - Metropolis (Original Mix) [Discover White]
18.John Askew - How Can I Put This (Liam Wilson and James Rigby Remix) [Discover]
19. Matt Davey - Evolution (Original Mix) [ASOT]
20.Greg Downey - Global Code (Original Mix) [Vandit]
21.Simon Patterson - Miss You (Original Mix) [Reset]
22.Ex-Driver - Final Approach (Original Mix) [Kill The Lights]
23.Sean Tyas - Lift (Original Mix) [Discover]
24.Ex-Driver & Alex Piletski - Last Rain (Original Mix) [Unearthed]
25.Photographer - Tic Tac (Original Mix) [Monster DIgital]
26.Ex-Driver - I Need You (Original Mix) [Flux Delux]
27.John Askew - Shine (Original Mix) [WAO138?!]
28.Indecent Noise - Trauma (Original Mix) [Night Vision]
29.John Askew - Misfit (Adam Foley's Unreleased Remix) [Discover]

MediaInfo

General
Complete name : PDJTV ONE - Ex-Driver.mp4
Format : MPEG-4
Format profile : QuickTime
Codec ID : qt
File size : 2.82 GiB
Duration : 2h 39mn
Overall bit rate mode : Constant
Overall bit rate : 2 523 Kbps
Encoded date : UTC 2014-04-14 16:01:28
Tagged date : UTC 2014-04-14 18:41:19
Writing library : Apple QuickTime
Video
ID : 1
Format : AVC
Format/Info : Advanced Video Codec
Format profile : [email protected]
Format settings, CABAC : Yes
Format settings, ReFrames : 3 frames
Codec ID : avc1
Codec ID/Info : Advanced Video Coding
Duration : 2h 39mn
Bit rate mode : Constant
Bit rate : 2 323 Kbps
Nominal bit rate : 2 500 Kbps
Width : 1 024 pixels
Height : 676 pixels
Display aspect ratio : 3:2
Frame rate mode : Variable
Frame rate : 27.881 fps
Original frame rate : 30.000 fps
Minimum frame rate : 0.139 fps
Maximum frame rate : 30.000 fps
Standard : NTSC
Color space : YUV
Chroma subsampling : 4:2:0
Bit depth : 8 bits
Scan type : Progressive
Bits/(Pixel*Frame) : 0.120
Stream size : 2.59 GiB (92%)
Title : Обработчик видео Apple / Обработчик псевдонимов Apple
Language : English
Encoded date : UTC 2014-04-14 16:01:28
Tagged date : UTC 2014-04-14 18:41:19
Audio
ID : 2
Format : AAC
Format/Info : Advanced Audio Codec
Format profile : LC
Codec ID : 40
Duration : 2h 39mn
Source duration : 2h 39mn
Bit rate mode : Constant
Bit rate : 192 Kbps
Channel count : 2 channels
Channel positions : Front: L R
Sampling rate : 44.1 KHz
Compression mode : Lossy
Stream size : 222 MiB (8%)
Source stream size : 222 MiB (8%)
Title : Обработчик звука Apple / Обработчик псевдонимов Apple
Language : English
Encoded date : UTC 2014-04-14 16:01:28
Tagged date : UTC 2014-04-14 18:41:19

Создавать темы 27-Апр-2014 13:27

[Профиль]  [ЛС] 
Показать сообщения:    
Ответить на тему

Текущее время: 20-Авг 07:22

Часовой пояс: UTC + 5



Вы не можете начинать темы
Вы не можете отвечать на сообщения
Вы не можете редактировать свои сообщения
Вы не можете удалять свои сообщения
Вы не можете голосовать в опросах
Вы не можете прикреплять файлы к сообщениям
Вы не можете скачивать файлы