Воин во времени / Time Warrior (Хоакин Родригез) [2012 г., фантастика, DVDRip]

Ответить на тему
 

igor1968 ®

Стаж: 5 лет 6 месяцев

Сообщений: 366

Симпатии: 197

Воин во времени / Time Warrior Год выпуска: 2012
Страна:
Жанр: фантастика
Продолжительность: 01:32:46.602
Перевод: Профессиональный (многоголосый, закадровый)
Режиссер: Хоакин Родригез
В ролях: ЭйДжи Бенсон
Monej Cruz
Аспен Дэйли
Кай Дентон
Brandon Dold
Claudia Garcia
Томас Грэнинджер
Michael Halverson
Mike Hlaverson
Расти Мейерс
...
Когда в руках Мэтта и Джимми оказывается пиратская версия одной из самых популярных видеоигр, они думают, что это самая крутая видеоигра, в которую они когда-либо играли. Дети не подозревают, что на самом деле — это устройство для включения избранных в отряды реальных воинов времени…- -премьера
1 января 2013, ...-Качество: DVDRip
Формат: AVI
Видео кодек: H.264
Аудио кодек: MP3
Видео: 720x400 (1.80:1), 23.976 fps, Intel ITU H.264 ~1634 kbps avg, 0.24 bit/pixel
Аудио: 48 kHz, MPEG Layer 3, 2 ch, ~256.00 kbps avg-

MediaInfo

General
Complete name : Воин во времени _ Time Warrior (2012).avi
Format : AVI
Format/Info : Audio Video Interleave
Format profile : OpenDML
File size : 1.23 GiB
Duration : 1h 32mn
Overall bit rate : 1 897 Kbps
Writing application : Lavf54.63.104
Video
ID : 0
Format : AVC
Format/Info : Advanced Video Codec
Format profile : [email protected]
Format settings, CABAC : Yes
Format settings, ReFrames : 1 frame
Codec ID : H264
Duration : 1h 32mn
Bit rate : 1 646 Kbps
Width : 720 pixels
Height : 400 pixels
Display aspect ratio : 16:9
Frame rate mode : Variable
Frame rate : 23.976 fps
Color space : YUV
Chroma subsampling : 4:2:0
Bit depth : 8 bits
Scan type : Progressive
Bits/(Pixel*Frame) : 0.238
Stream size : 1.05 GiB (86%)
Writing library : x264 core 129
Encoding settings : cabac=1 / ref=1 / deblock=1:0:0 / analyse=0x1:0x131 / me=dia / subme=2 / psy=1 / psy_rd=1.00:0.00 / mixed_ref=0 / me_range=16 / chroma_me=1 / trellis=0 / 8x8dct=0 / cqm=0 / deadzone=21,11 / fast_pskip=1 / chroma_qp_offset=0 / threads=2 / lookahead_threads=1 / sliced_threads=0 / nr=0 / decimate=1 / interlaced=0 / bluray_compat=0 / constrained_intra=0 / bframes=0 / weightp=2 / keyint=250 / keyint_min=25 / scenecut=40 / intra_refresh=0 / rc_lookahead=40 / rc=abr / mbtree=1 / bitrate=1646 / ratetol=1.0 / qcomp=0.60 / qpmin=10 / qpmax=51 / qpstep=4 / ip_ratio=1.41 / aq=1:1.00
Audio
ID : 1
Format : MPEG Audio
Format version : Version 1
Format profile : Layer 3
Mode : Joint stereo
Mode extension : MS Stereo
Codec ID : 55
Codec ID/Hint : MP3
Duration : 1h 32mn
Bit rate mode : Constant
Bit rate : 256 Kbps
Channel count : 2 channels
Sampling rate : 48.0 KHz
Compression mode : Lossy
Stream size : 170 MiB (13%)
Alignment : Aligned on interleaves
Interleave, duration : 24 ms (0.58 video frame)
Writing library : LAME3.99.5
-

Скриншоты

- -

Создавать темы 27-Апр-2014 21:44

[Профиль]  [ЛС] 

soxa

Стаж: 4 года 11 месяцев

Сообщений: 155

Симпатии: 21

ПО РЕЙТИНГУ ФИЛЬМ КРУТ bw

Создавать темы 27-Апр-2014 23:38

[Профиль]  [ЛС] 

sava_ten

Стаж: 4 года 11 месяцев

Сообщений: 1

кто качал, отпишитесь.

Создавать темы 22-Авг-2014 22:20

[Профиль]  [ЛС] 

Sukhrob

Стаж: 4 года 7 месяцев

Сообщений: 5

дайте скорость

Создавать темы 05-Дек-2014 14:39

[Профиль]  [ЛС] 

drabadan

Стаж: 4 года 7 месяцев

Сообщений: 28

КРУТТОЙ фильм

Создавать темы 05-Дек-2014 19:08

[Профиль]  [ЛС] 

Massageth

Стаж: 6 лет 10 месяцев

Сообщений: 116

Симпатии: 15

igor1968, Дайте скачать до конца, который день на 85% застрял.

Создавать темы 12-Дек-2014 18:08

[Профиль]  [ЛС] 
Показать сообщения:    
Ответить на тему

Текущее время: 25-Сен 18:33

Часовой пояс: UTC + 5



Вы не можете начинать темы
Вы не можете отвечать на сообщения
Вы не можете редактировать свои сообщения
Вы не можете удалять свои сообщения
Вы не можете голосовать в опросах
Вы не можете прикреплять файлы к сообщениям
Вы не можете скачивать файлы