Она / Her (Спайк Джонс)[2013, Мелодрама, драма, фантастика, HDRip] [Гараж Дубляж]

Ответить на тему
 

Suxrob89 ®

Стаж: 7 лет 2 месяца

Сообщений: 933

Симпатии: 564

-Она / Her- Год выпуска: 2013
Жанр: Мелодрама, драма, фантастика
Выпущено: США, Annapurna Pictures
Продолжительность: 02:05:50
Перевод: Любительский многоголосый [Гараж Дубляж]-Режиссер: Спайк Джонс-В ролях:Хоакин Феникс, Эми Адамс, Руни Мара, Оливия Уайлд, Скарлетт Йоханссон, Линн А. Фридман, Лиза Рени Питтс, Гейб Гомез, Крис Прэтт, Артт Батлер, Мэй Линдстрём, Билл Хейдер, Кристен Уиг, Брайан Джонсон, Мэтт Летчер, Спайк Джонс-Описание: Фильм рассказывает об одиноком писателе Теодоре, который покупает новую техническую разработку — операционную систему, призванную исполнять любое желание пользователя. К удивлению Теодора, вскоре между ним и операционной системой возникает роман.- -Качество: HDRip
Видео: XviD, 1205 Кбит/с, 720x384
Аудио: AC3, 6 ch, 448 Кбит/c

Скриншоты

Создавать темы 29-Апр-2014 06:56

[Профиль]  [ЛС] 

infinity2go

Стаж: 5 лет 9 месяцев

Сообщений: 25

Чайный пакетик TBag ? ))

Создавать темы 29-Апр-2014 08:23

[Профиль]  [ЛС] 

marimari

Стаж: 3 года 11 месяцев

Сообщений: 6

Спасибо-спасибо-спасибо! Как же ж я ждала этот фильм.

Создавать темы 30-Апр-2014 23:16

[Профиль]  [ЛС] 

Quality

Стаж: 7 лет 3 месяца

Сообщений: 55

Симпатии: 3

когда лицензия будет?

Создавать темы 02-Май-2014 10:51

[Профиль]  [ЛС] 

outoforder

Стаж: 4 года 11 месяцев

Сообщений: 812

Симпатии: 172

Круто. Не хватает терминаторш, блюскринов и вирусов. Музыка тож норм. Дубляж хорош.
Кстати в описании недостает звуковых дорожек их 4 вместе с оригинальной вот медиа инфо
Audio #1
ID : 2
Format : AC-3
Format/Info : Audio Coding 3
Mode extension : CM (complete main)
Format settings, Endianness : Big
Codec ID : A_AC3
Duration : 2h 5mn
Bit rate mode : Constant
Bit rate : 192 Kbps
Channel count : 2 channels
Channel positions : Front: L R
Sampling rate : 48.0 KHz
Bit depth : 16 bits
Compression mode : Lossy
Stream size : 173 MiB (1%)
Title : Дубляж (Чистый Звук)
Language : Russian
Default : Yes
Forced : Yes
Audio #2
ID : 3
Format : DTS
Format/Info : Digital Theater Systems
Mode : 16
Format settings, Endianness : Big
Codec ID : A_DTS
Duration : 2h 5mn
Bit rate mode : Constant
Bit rate : 1 509 Kbps
Channel count : 6 channels
Channel positions : Front: L C R, Side: L R, LFE
Sampling rate : 48.0 KHz
Bit depth : 24 bits
Compression mode : Lossy
Stream size : 1.33 GiB (7%)
Title : Студия Гараж
Language : Russian
Default : No
Forced : No
Audio #3
ID : 4
Format : DTS
Format/Info : Digital Theater Systems
Mode : 16
Format settings, Endianness : Big
Codec ID : A_DTS
Duration : 2h 5mn
Bit rate mode : Constant
Bit rate : 1 510 Kbps
Channel count : 6 channels
Channel positions : Front: L C R, Side: L R, LFE
Sampling rate : 48.0 KHz
Bit depth : 24 bits
Compression mode : Lossy
Stream size : 1.33 GiB (7%)
Title : А.Матвеев
Language : Russian
Default : No
Forced : No
Audio #4
ID : 5
Format : DTS
Format/Info : Digital Theater Systems
Mode : 16
Format settings, Endianness : Big
Codec ID : A_DTS
Duration : 2h 5mn
Bit rate mode : Constant
Bit rate : 1 509 Kbps
Channel count : 6 channels
Channel positions : Front: L C R, Side: L R, LFE
Sampling rate : 48.0 KHz
Bit depth : 24 bits
Compression mode : Lossy
Stream size : 1.33 GiB (7%)
Language : English
Default : No
Forced : No

Создавать темы 02-Июл-2014 12:27

[Профиль]  [ЛС] 

Vazgen

Стаж: 4 года 7 месяцев

Сообщений: 7

дайте раздачу ПЛИЗЗЗЗЗЗЗЗЗЗЗЗЗЗЗЗЗЗЗЗЗЗЗЗЗЗЗ

Создавать темы 12-Янв-2015 00:08

[Профиль]  [ЛС] 
Показать сообщения:    
Ответить на тему

Текущее время: 19-Окт 14:18

Часовой пояс: UTC + 5



Вы не можете начинать темы
Вы не можете отвечать на сообщения
Вы не можете редактировать свои сообщения
Вы не можете удалять свои сообщения
Вы не можете голосовать в опросах
Вы не можете прикреплять файлы к сообщениям
Вы не можете скачивать файлы