«Турист» / «The Tourist» (Флориан Хенкель фон Доннерсмарк) [2010 г., боевик драма мелодрама, 1080p /Dub+Eng] BDRip

Ответить на тему
 

siyovush101 ®

Стаж: 3 года 9 месяцев

Сообщений: 205

Симпатии: 71

Турист / The Tourist / Флориан Хенкель / 1080p / [Dub+Eng] -Режжисёр: Флориан Хенкель-Длительность: 01:43:36-В Ролях: Анджелина Джоли , Джонни Дэпп и др.-Перевод: Проффесиональный (Дублированный)-Бюджет: 100 000 000 $-Сборы в Мире: 278 346 189 $-Описание: Американский турист Фрэнк приезжает в Италию, чтобы залечить душевную рану. В Венеции он знакомится с необычной женщиной по имени Элиза. Израненное сердце, похоже, готово сдаться новой возлюбленной. Однако планы Фрэнка и Элизы грубейшим образом нарушает водоворот интриг и опасностей.-Дополнительная Информация: Вырезал Не Нужные Инопланетные Звуковые Дорожки и Сократил Размер почти на 2 Гб-Качество: 1080p BDRip
Видео: 10.5 Mbps , 1920х800 , 23.976 fps
Аудио: AC-3 / 6 ch. / 384 Kbps [RU]
Аудио: DTS / 6 ch. / 1510 Kbps
[ENG]
Субтитры: Есть, Русские / Английские

Format : Matroska
Format version : Version 4 / Version 2
File size : 8.99 GiB
Duration : 1h 43mn
Overall bit rate : 12.4 Mbps
Movie name : NoNaMe
Encoded date : UTC 2014-03-13 16:05:09
Writing application : mkvmerge v6.7.0 ('Back to the Ground') 32bit built on Jan 8 2014 15:03:17
Writing library : libebml v1.3.0 + libmatroska v1.4.1
Video #1
ID : 1
Format : AVC
Format/Info : Advanced Video Codec
Format profile : [email protected]
Format settings, CABAC : Yes
Format settings, ReFrames : 5 frames
Codec ID : V_MPEG4/ISO/AVC
Duration : 1h 43mn
Bit rate : 10.5 Mbps
Width : 1 920 pixels
Height : 800 pixels
Display aspect ratio : 2.40:1
Frame rate : 23.976 fps
Color space : YUV
Chroma subsampling : 4:2:0
Bit depth : 8 bits
Scan type : Progressive
Bits/(Pixel*Frame) : 0.286
Stream size : 7.44 GiB (83%)
Writing library : x264 core 107 r1766 f9f0035
Language : English
Default : Yes
Forced : No
Audio #2
ID : 2
Format : AC-3
Format/Info : Audio Coding 3
Mode extension : CM (complete main)
Format settings, Endianness : Big
Codec ID : A_AC3
Duration : 1h 43mn
Bit rate mode : Constant
Bit rate : 384 Kbps
Channel(s) : 6 channels
Channel positions : Front: L C R, Side: L R, LFE
Sampling rate : 48.0 KHz
Bit depth : 16 bits
Compression mode : Lossy
Stream size : 285 MiB (3%)
Title : Дублированный [Лицензия]
Language : Russian
Default : Yes
Forced : No
Audio #3
ID : 3
Format : DTS
Format/Info : Digital Theater Systems
Codec ID : A_DTS
Duration : 1h 43mn
Bit rate mode : Constant
Bit rate : 1 510 Kbps
Channel(s) : 6 channels
Channel positions : Front: L C R, Side: L R, LFE
Sampling rate : 48.0 KHz
Bit depth : 24 bits
Compression mode : Lossy
Stream size : 1.09 GiB (12%)
Title : Оригинал
Language : English
Default : No
Forced : No
Text #4
ID : 4
Format : UTF-8
Codec ID : S_TEXT/UTF8
Codec ID/Info : UTF-8 Plain Text
Title : Full
Language : Russian
Default : No
Forced : No
Text #5
ID : 5
Format : UTF-8
Codec ID : S_TEXT/UTF8
Codec ID/Info : UTF-8 Plain Text
Language : English
Default : No
Forced : No
-


Последний раз редактировалось: siyovush101 (2014-04-30 19:24), всего редактировалось 14 раз(а)

Создавать темы 30-Апр-2014 10:21

[Профиль]  [ЛС] 

siyovush101 ®

Стаж: 3 года 9 месяцев

Сообщений: 205

Симпатии: 71

А Чё Убрали Шпаргалки при Заливе Релиза...Я Не Знаю Как Паралельно Постеру Запечатать Инфу! Модераторы плиз поправте или мне намекните я сам! И ещё Извиняюсь что напрямую кинул в раздел ХД! а не зарубежное кино!


Последний раз редактировалось: siyovush101 (2014-04-30 11:05), всего редактировалось 1 раз

Создавать темы 30-Апр-2014 10:44

[Профиль]  [ЛС] 

siyovush101 ®

Стаж: 3 года 9 месяцев

Сообщений: 205

Симпатии: 71

НЕ Пойму Что С Сайтом?! Куда Пропали Лайки? Куда Пропал Интерфейс Залива Релизов...Аватарки стали Вытянутые... Модераторы Может вы в курсе?!

Создавать темы 30-Апр-2014 10:59

[Профиль]  [ЛС] 

2BubbLe

Стаж: 3 года 11 месяцев

Сообщений: 167

Симпатии: 12

оформите по шаблону Шаблоны для оформления релизов

Создавать темы 30-Апр-2014 20:19

[Профиль]  [ЛС] 

siyovush101 ®

Стаж: 3 года 9 месяцев

Сообщений: 205

Симпатии: 71

Ребята скачавшие Сидируйте! Для Вас Старался! Имейте Совесть Ок?
Раздал 700% Желаю Всем Удачи =)


Последний раз редактировалось: siyovush101 (2014-05-24 10:46), всего редактировалось 2 раз(а)

Создавать темы 14-Май-2014 15:34

[Профиль]  [ЛС] 

Топик был перенесен из форума HD-video в форум Зарубежное кино
mp1988

Создавать темы 19-Май-2014 21:34

 

siyovush101 ®

Стаж: 3 года 9 месяцев

Сообщений: 205

Симпатии: 71

Скачал?! СИДИРУЙ!!!!!

Создавать темы 10-Июн-2014 12:05

[Профиль]  [ЛС] 

siyovush101 ®

Стаж: 3 года 9 месяцев

Сообщений: 205

Симпатии: 71

Скачавшие Сидируйте! Не Надо Борзеть!

Создавать темы 12-Авг-2014 00:05

[Профиль]  [ЛС] 
Показать сообщения:    
Ответить на тему

Текущее время: 23-Ноя 23:38

Часовой пояс: UTC + 5



Вы не можете начинать темы
Вы не можете отвечать на сообщения
Вы не можете редактировать свои сообщения
Вы не можете удалять свои сообщения
Вы не можете голосовать в опросах
Вы не можете прикреплять файлы к сообщениям
Вы не можете скачивать файлы