Короли танцпола / Battle of the Year (Бенсон Ли / Benson Lee) [2013, США, Музыка, BDRip 1080p] Dub + Ukr Dub + Original Eng + Sub Rus, Ukr, Eng

Ответить на тему
 

Phantomhive ®

Стаж: 4 года 2 месяца

Сообщений: 218

Симпатии: 10

Короли Танцпола / Battle of the Year
«Весь мир у их ног»
Год выпуска: 2013
Страна: США
Жанр: Музика
Продолжительность: 01:49:40
Перевод: Профессиональный (полное дублирование)
Оригинальная аудиодорожка: Английский-Режиссёр: Бенсон Ли
Сценарий: Брин Хилл, Крис Паркер, Бенсон Ли
Продюсер: Бо Флинн, Эми Ло, Трип Винсон
Оператор: Майкл Баррет
Композитор: Кристофер Леннерц
Художник: Крис Корнвэлл, Чарли Кэмпбелл, Соён Эн
Монтаж: Алессандра Карлино, Питер С. Эллиот-В ролях: Джош Холлоуэй, Лас Алонсо, Джош Пек, Кейти Лотц, Крис Браун, Иван «Флипз» Велез, Джон «Ду Нок» Крус, Джесси «Каспер» Браун, Дэвид Шрейбман, Саванди Уилсон-Роли дублировали: Валерий Соловьев, Олег Фёдоров, Игорь Сергеев, Ирина Горячева, Александр Быковский-Бюджет: $20 000 000
Сборы в США: $8 792 656
Сборы в мире: + $1 628 738 = $10 421 394
Мировая премьера: 19 сентября 2013
Премьера (РФ): 7 ноября 2013, WDSSPR, 3D
Релиз на Blu-Ray: 30 января 2014, Columbia/Sony
Релиз на DVD: 30 января 2014, Columbia/Sony-Описание: Когда-то Джейсон Блэйк был профессиональным тренером по баскетболу, но это уже давно стало его прошлым. Сейчас он переживает сложные времена: у него нет работы, он потерял семью и проживает в маленькой квартирке, коротая время за распитием спиртных напитков. Однажды к нему приходит его старый приятель Данте и предлагает ему неплохую работу. Он просит Джейсона стать тренером американской команды по брэйк-дансу и фристайлу, которая собирается принять участие в мировом чемпионате «Битва года». Главной задачей для команды является победа, поскольку американцы не выигрывали этот турнир на протяжении уже пятнадцати лет...-Качество: BDRip 1080p | Контейнер: MKV | iNK
Видео: 1920x1040 (1.85:1), 23.976 fps, [email protected] ~ 14200 kbps avg
Аудио:
Russian 48 kHz, AC3, 3/2 (L,C,R,l,r) + LFE ch, 640.00 kbps avg | BD CEE
Ukrainian 48 kHz, AC3, 3/2 (L,C,R,l,r) + LFE ch, 640.00 kbps avg | BD CEE
English 48 kHz, DTS, 3/2 (L,C,R,l,r) + LFE ch, 1509.00 kbps avg | Original
Cубтитры: русские (full), украинские (forced), английские (forced, full) .srt | Сэмпл-

Доп. информация

Сценарий фильма основан на документальной ленте Бенсона Ли "Планета би-боев" (Planet B-Boy) 2007 года.

Медиаинфо

General
Unique ID : 226966140770140849798946089274669552572 (0xAAC016B43301D10A91FFD986BCD453BC)
Complete name : F:\Короли Танцпола\Короли Танцпола.mkv
Format : Matroska
Format version : Version 4 / Version 2
File size : 13.0 GiB
Duration : 1h 49mn
Overall bit rate : 17.0 Mbps
Movie name : Battle of the Year 2013
Encoded date : UTC 2014-03-30 09:32:33
Writing application : mkvmerge v6.6.0 ('The Edge Of The In Between') built on Dec 1 2013 17:55:00
Writing library : libebml v1.3.0 + libmatroska v1.4.1
Video
ID : 1
Format : AVC
Format/Info : Advanced Video Codec
Format profile : [email protected]
Format settings, CABAC : Yes
Format settings, ReFrames : 4 frames
Codec ID : V_MPEG4/ISO/AVC
Duration : 1h 49mn
Bit rate : 14.2 Mbps
Width : 1 920 pixels
Height : 1 040 pixels
Display aspect ratio : 1.85:1
Frame rate mode : Constant
Frame rate : 23.976 fps
Color space : YUV
Chroma subsampling : 4:2:0
Bit depth : 8 bits
Scan type : Progressive
Bits/(Pixel*Frame) : 0.296
Stream size : 10.6 GiB (82%)
Title : BDRip 1080p Release for HDCLUB
Writing library : x264 core 133 r2334 a3ac64b
Encoding settings : cabac=1 / ref=4 / deblock=1:-3:-3 / analyse=0x3:0x113 / me=tesa / subme=11 / psy=1 / psy_rd=1.05:0.10 / mixed_ref=1 / me_range=16 / chroma_me=1 / trellis=2 / 8x8dct=1 / cqm=0 / deadzone=21,11 / fast_pskip=0 / chroma_qp_offset=-5 / threads=12 / lookahead_threads=2 / sliced_threads=0 / nr=0 / decimate=0 / interlaced=0 / bluray_compat=0 / constrained_intra=0 / bframes=8 / b_pyramid=2 / b_adapt=2 / b_bias=0 / direct=3 / weightb=1 / open_gop=0 / weightp=2 / keyint=250 / keyint_min=23 / scenecut=40 / intra_refresh=0 / rc=2pass / mbtree=0 / bitrate=14155 / ratetol=1.0 / qcomp=0.70 / qpmin=0 / qpmax=69 / qpstep=4 / cplxblur=20.0 / qblur=0.5 / ip_ratio=1.20 / pb_ratio=1.30 / aq=1:0.90
Language : English
Default : Yes
Forced : No
Audio #1
ID : 2
Format : AC-3
Format/Info : Audio Coding 3
Mode extension : CM (complete main)
Format settings, Endianness : Big
Codec ID : A_AC3
Duration : 1h 49mn
Bit rate mode : Constant
Bit rate : 640 Kbps
Channel(s) : 6 channels
Channel positions : Front: L C R, Side: L R, LFE
Sampling rate : 48.0 KHz
Bit depth : 16 bits
Compression mode : Lossy
Stream size : 502 MiB (4%)
Title : BD CEE
Language : Russian
Default : Yes
Forced : No
Audio #2
ID : 3
Format : AC-3
Format/Info : Audio Coding 3
Mode extension : CM (complete main)
Format settings, Endianness : Big
Codec ID : A_AC3
Duration : 1h 49mn
Bit rate mode : Constant
Bit rate : 640 Kbps
Channel(s) : 6 channels
Channel positions : Front: L C R, Side: L R, LFE
Sampling rate : 48.0 KHz
Bit depth : 16 bits
Compression mode : Lossy
Stream size : 502 MiB (4%)
Title : BD CEE
Language : Ukrainian
Default : No
Forced : No
Audio #3
ID : 4
Format : DTS
Format/Info : Digital Theater Systems
Mode : 16
Format settings, Endianness : Big
Codec ID : A_DTS
Duration : 1h 49mn
Bit rate mode : Constant
Bit rate : 1 509 Kbps
Channel(s) : 6 channels
Channel positions : Front: L C R, Side: L R, LFE
Sampling rate : 48.0 KHz
Bit depth : 24 bits
Compression mode : Lossy
Stream size : 1.16 GiB (9%)
Title : Original
Language : English
Default : No
Forced : No
Text #1
ID : 5
Format : UTF-8
Codec ID : S_TEXT/UTF8
Codec ID/Info : UTF-8 Plain Text
Title : Full
Language : Russian
Default : No
Forced : No
Text #2
ID : 6
Format : UTF-8
Codec ID : S_TEXT/UTF8
Codec ID/Info : UTF-8 Plain Text
Title : Forced
Language : Ukrainian
Default : No
Forced : No
Text #3
ID : 7
Format : UTF-8
Codec ID : S_TEXT/UTF8
Codec ID/Info : UTF-8 Plain Text
Title : Forced
Language : English
Default : No
Forced : No
Text #4
ID : 8
Format : UTF-8
Codec ID : S_TEXT/UTF8
Codec ID/Info : UTF-8 Plain Text
Title : Full
Language : English
Default : No
Forced : No
Menu
00:00:00.000 : en:00:00:00.000
00:06:28.054 : en:00:06:28.054
00:14:22.987 : en:00:14:22.987
00:21:33.375 : en:00:21:33.375
00:27:31.149 : en:00:27:31.149
00:35:14.904 : en:00:35:14.904
00:40:18.833 : en:00:40:18.833
00:47:31.015 : en:00:47:31.015
00:55:41.088 : en:00:55:41.088
01:00:00.055 : en:01:00:00.055
01:04:57.685 : en:01:04:57.685
01:12:06.072 : en:01:12:06.072
01:21:08.447 : en:01:21:08.447
01:29:04.756 : en:01:29:04.756
01:33:01.367 : en:01:33:01.367
01:39:48.441 : en:01:39:48.441

Скриншоты

Создавать темы 02-Май-2014 07:08

[Профиль]  [ЛС] 

Phantomhive ®

Стаж: 4 года 2 месяца

Сообщений: 218

Симпатии: 10

Свё Равно для меня Chris Brown number 1!!! Он самий лутший после Michael Jackson`а!!!

Создавать темы 02-Май-2014 07:15

[Профиль]  [ЛС] 

Atna

Стаж: 3 года 6 месяцев

Сообщений: 6

Всем привет!
А раздача будет?

Создавать темы 02-Май-2014 13:02

[Профиль]  [ЛС] 

Phantomhive ®

Стаж: 4 года 2 месяца

Сообщений: 218

Симпатии: 10

Я раздаю каждий ден!!!

Создавать темы 02-Май-2014 19:49

[Профиль]  [ЛС] 

натик

Стаж: 4 года 11 месяцев

Сообщений: 10

спс за релиз.но скорости моловато.можно газу?

Создавать темы 03-Май-2014 01:12

[Профиль]  [ЛС] 
Показать сообщения:    
Ответить на тему

Текущее время: 23-Авг 09:24

Часовой пояс: UTC + 5



Вы не можете начинать темы
Вы не можете отвечать на сообщения
Вы не можете редактировать свои сообщения
Вы не можете удалять свои сообщения
Вы не можете голосовать в опросах
Вы не можете прикреплять файлы к сообщениям
Вы не можете скачивать файлы