Полуденная нега / Afternoon Delight (Джилл Солоуэй) [2013, комедия, драма, HDRip]

Тема закрыта
 

Каротажник ®

Стаж: 4 года 1 месяц

Сообщений: 195

Симпатии: 211

Полуденная нега / Afternoon Delight

Год выпуска: США
Страна: 2013
Жанр: комедия, драма

Продолжительность: 01:37:49
Перевод: профессиональный (двухголосый) [студия Elrom]

Режиссёр: Джилл Солоуэй
В ролях: Кэтрин Хан, Джуно Темпл, Джош Рэднор, Джейн Линч, Джессика Ст. Клэр, Михаэлла Уоткинс, Джош Стэмберг, Джон Капелос, Кигэн-Майкл Ки, Энни Мумоло

Рэйчел — образованная и привлекательная домохозяйка, тридцати с лишним лет, живущая среди творческой богемы Лос-Анджелеса в одном из самых богатых районов города — Сильвер-Лейк. На первый взгляд у неё есть всё: роскошный благоустроенный дом, успешный муж, прелестный ребёнок и огромное количество хипстерской одежды. Однако почему же она изнывает от тоски?
Измученная скукой, Рэйчел отправляется в стриптиз-клуб, надеясь оживить свой брак и встречает там стриптизёршу МакКенну. Желая наставить её на путь истинный, Рэйчел нанимает её няней в свою семью. Этот поступок приводит к цепочке неожиданных и ярких событий в жизни Рэйчел и всего её окружения.




Качество: HDRip
Формат: Avi

Видео: Xvid 720x384 23.976fps 1730kbps
Аудио 1: Dolby AC3 48000Hz stereo 192kbps
Аудио 2: Dolby AC3 48000Hz stereo 192kbps

Media Info

Format : AVI
Format/Info : Audio Video Interleave
File size : 1.45 GiB
Duration : 1h 37mn
Overall bit rate : 2 129 Kbps
Movie name : Poludennaya Nega 2013
Original source form/Distribut : BluRay
Genre : Drama
Copyright : 25KADR
Comment : DVO (Elrom studio)
Video
ID : 0
Format : MPEG-4 Visual
Format profile : Advanced [email protected]
Format settings, BVOP : 2
Format settings, QPel : No
Format settings, GMC : No warppoints
Format settings, Matrix : Default (H.263)
Muxing mode : Packed bitstream
Codec ID : XVID
Codec ID/Hint : XviD
Duration : 1h 37mn
Bit rate : 1 730 Kbps
Width : 720 pixels
Height : 384 pixels
Display aspect ratio : 1.85:1
Frame rate : 23.976 fps
Color space : YUV
Chroma subsampling : 4:2:0
Bit depth : 8 bits
Scan type : Progressive
Compression mode : Lossy
Bits/(Pixel*Frame) : 0.261
Stream size : 1.18 GiB (81%)
Writing library : XviD 64
Audio #1
ID : 1
Format : AC-3
Format/Info : Audio Coding 3
Mode extension : CM (complete main)
Format settings, Endianness : Big
Codec ID : 2000
Duration : 1h 37mn
Bit rate mode : Constant
Bit rate : 192 Kbps
Channel(s) : 2 channels
Channel positions : Front: L R
Sampling rate : 48.0 KHz
Bit depth : 16 bits
Compression mode : Lossy
Stream size : 134 MiB (9%)
Alignment : Split accross interleaves
Interleave, duration : 42 ms (1.00 video frame)
Interleave, preload duration : 500 ms
Language : Russian
Audio #2
ID : 2
Format : AC-3
Format/Info : Audio Coding 3
Mode extension : CM (complete main)
Format settings, Endianness : Big
Codec ID : 2000
Duration : 1h 37mn
Bit rate mode : Constant
Bit rate : 192 Kbps
Channel(s) : 2 channels
Channel positions : Front: L R
Sampling rate : 48.0 KHz
Bit depth : 16 bits
Compression mode : Lossy
Stream size : 134 MiB (9%)
Alignment : Split accross interleaves
Interleave, duration : 42 ms (1.00 video frame)
Interleave, preload duration : 500 ms

Скриншоты


Создавать темы 02-Май-2014 23:53

[Профиль]  [ЛС] 

pikiner

Стаж: 6 лет 11 месяцев

Сообщений: 47

Симпатии: 3

Мосби?

Создавать темы 03-Май-2014 09:03

[Профиль]  [ЛС] 

Mixer City

Стаж: 6 лет 11 месяцев

Сообщений: 754

Симпатии: 63

https://tas-ix.net/viewtopic.php?t=93271

Создавать темы 03-Май-2014 19:26

[Профиль]  [ЛС] 
Показать сообщения:    
Тема закрыта

Текущее время: 22-Ноя 23:22

Часовой пояс: UTC + 5



Вы не можете начинать темы
Вы не можете отвечать на сообщения
Вы не можете редактировать свои сообщения
Вы не можете удалять свои сообщения
Вы не можете голосовать в опросах
Вы не можете прикреплять файлы к сообщениям
Вы не можете скачивать файлы