Токарев / Tokarev (Пако Кабесас) [2014 г., Боевик, триллер, криминал, BDRip-AVC] L2

Ответить на тему
 

Suxrob89 ®

Стаж: 7 лет 2 месяца

Сообщений: 933

Симпатии: 564

-Токарев / Tokarev- Год выпуска: 2014
Страна: США, Франция, Hannibal Pictures, Tokarev Production
Жанр: Боевик, триллер, криминал
Продолжительность: 01:38:26
Перевод: Двуголосый закадровый, профессиональный (Пиратская студия)-Режиссер: Пако Кабесас-В ролях: Николас Кейдж, Рэйчел Николс, Петер Стормаре, Дэнни Гловер, Обри Пиплз, Елена Санчес, Майкл МакГрэйди, Павел Личникофф, Доун Хэмил, Макс Райан-Описание: Пол Магуаер — бывший гангстер, а теперь добропорядочный бизнесмен и примерный семьянин. Но когда его дочь похищают, он вынужден поднять свои старые связи и снова вернуться на скользкую дорожку…- -Качество: BDRip-AVC [BDRemux 1080p]
Формат: MKV
Видео кодек: MPEG-4 AVC
Аудио кодек: AC3
Видео: MPEG-4 AVC, 960x408 (2.35:1), 1671 kbps, 23,976 fps, 0,178 bpp
Аудио: AC3 / 5.1 / 48 kHz / 448 kbps / 16 bit

Media info

Общее
Уникальный идентификатор : 241600660155829814524424923699159036721 (0xB5C298378F732C34B9E0E48EB774F331)
Полное имя : D:\Tokarev.2014.x264.BDRip.mkv
Формат : Matroska
Версия формата : Version 2
Размер файла : 1,45 Гбайт
Продолжительность : 1 ч. 38 м.
Общий поток : 2114 Кбит/сек
Название фильма : Tokarev.2014.BDRip.NNM-CLUB
Дата кодирования : UTC 2014-05-04 20:44:35
Программа кодирования : mkvmerge v4.9.1 ('Ich will') сборка от Jul 11 2011 23:53:15
Библиотека кодирования : libebml v1.2.1 + libmatroska v1.1.1
Видео
Идентификатор : 1
Формат : AVC
Формат/Информация : Advanced Video Codec
Профиль формата : [email protected]
Параметр CABAC формата : Да
Параметр ReFrames формата : 10 кадров
Идентификатор кодека : V_MPEG4/ISO/AVC
Продолжительность : 1 ч. 38 м.
Битрейт : 1671 Кбит/сек
Ширина : 960 пикселей
Высота : 408 пикселей
Соотношение сторон : 2,35:1
Режим частоты кадров : Постоянный
Частота кадров : 23,976 кадра/сек
Цветовое пространство : YUV
Субдискретизация насыщенности : 4:2:0
Битовая глубина : 8 бит
Тип развёртки : Прогрессивная
Бит/(Пиксели*Кадры) : 0.178
Размер потока : 1,12 Гбайт (77%)
Настройки программы : cabac=1 / ref=10 / deblock=1:-2:-2 / analyse=0x3:0x113 / me=umh / subme=11 / psy=1 / fade_compensate=0.00 / psy_rd=1.10:0.20 / mixed_ref=1 / me_range=32 / chroma_me=1 / trellis=2 / 8x8dct=1 / cqm=0 / deadzone=21,11 / fast_pskip=0 / chroma_qp_offset=-3 / threads=6 / lookahead_threads=1 / sliced_threads=0 / nr=0 / decimate=0 / interlaced=0 / bluray_compat=0 / constrained_intra=0 / fgo=0 / bframes=11 / b_pyramid=2 / b_adapt=2 / b_bias=0 / direct=3 / weightb=1 / open_gop=0 / weightp=2 / keyint=240 / keyint_min=23 / scenecut=40 / intra_refresh=0 / rc=2pass / mbtree=0 / bitrate=1671 / ratetol=1.0 / qcomp=0.70 / qpmin=0:0:0 / qpmax=69:69:69 / qpstep=4 / cplxblur=20.0 / qblur=0.5 / ip_ratio=1.40 / pb_ratio=1.30 / aq=1:1.00 / aq-sensitivity=10.00 / aq-factor=1.00:1.00:1.00 / aq2=0 / aq3=0
Язык : English
Default : Да
Forced : Нет
Аудио
Идентификатор : 2
Формат : AC-3
Формат/Информация : Audio Coding 3
Расширение режима : CM (complete main)
Параметр Endianness формата : Big
Идентификатор кодека : A_AC3
Продолжительность : 1 ч. 38 м.
Вид битрейта : Постоянный
Битрейт : 448 Кбит/сек
Каналы : 6 каналов
Расположение каналов : Front: L C R, Side: L R, LFE
Частота : 48,0 КГц
Битовая глубина : 16 бит
Метод сжатия : С потерями
Размер потока : 315 Мбайт (21%)
Язык : Russian
Default : Да
Forced : Нет
Меню
00:00:00.000 : en:00:00:00.000
00:08:35.598 : en:00:08:35.598
00:16:44.295 : en:00:16:44.295
00:24:59.998 : en:00:24:59.998
00:37:21.448 : en:00:37:21.448
00:42:16.200 : en:00:42:16.200
00:48:20.356 : en:00:48:20.356
00:55:27.032 : en:00:55:27.032
01:07:48.731 : en:01:07:48.731
01:13:20.146 : en:01:13:20.146
01:19:58.711 : en:01:19:58.711
01:27:23.071 : en:01:27:23.071

Скриншоты






Последний раз редактировалось: Suxrob89 (2014-05-05 04:54), всего редактировалось 2 раз(а)

Создавать темы 03-Май-2014 13:55

[Профиль]  [ЛС] 

mega_boss

Стаж: 6 лет 5 месяцев

Сообщений: 29

Спс огромное Suxrob89 ® Твои релизы просто Класс супер

Создавать темы 03-Май-2014 14:27

[Профиль]  [ЛС] 

Топик был перенесен из форума Фильмы за 2014 (новинки) в форум HD-AVC
Иви

Создавать темы 03-Май-2014 14:32

 

Slowwalker

Стаж: 4 года 9 месяцев

Сообщений: 165

Симпатии: 68

Не самая лучшая роль Николаса Кейджа, да и сценарий слабоват. Фильм создает много стереотипов. После просмотра данного фильма у меня осталось такое чувство как будто этот фильм слабая пропаганда против право свободного нашение огнестрельного оружие (это больная тема в данный момент очень актуальна у американцев) В целом 4 из 10

Создавать темы 05-Май-2014 07:09

[Профиль]  [ЛС] 

pct

Стаж: 6 лет 8 месяцев

Сообщений: 120

Симпатии: 12

Тупой актёр, тупой фильм. Его рожу в чёрных очках, как аватару ставить можно, на героине сидит что-ли?

Создавать темы 05-Май-2014 19:22

[Профиль]  [ЛС] 

Tatarinnn

Стаж: 3 года 8 месяцев

Сообщений: 7

включите раздачу!!!!!!!!!!

Создавать темы 07-Май-2014 13:57

[Профиль]  [ЛС] 
Показать сообщения:    
Ответить на тему

Текущее время: 21-Окт 17:16

Часовой пояс: UTC + 5



Вы не можете начинать темы
Вы не можете отвечать на сообщения
Вы не можете редактировать свои сообщения
Вы не можете удалять свои сообщения
Вы не можете голосовать в опросах
Вы не можете прикреплять файлы к сообщениям
Вы не можете скачивать файлы