Малена / Malèna (Джузеппе Торнаторе) [2000 г., Военный, Драма, Мелодрама, BDRip]

Ответить на тему
 

Nosferatu ®

Стаж: 4 года 8 месяцев

Сообщений: 79

Симпатии: 5

Малена / Malèna- -Год выпуска: 2000
Страна: Италия, США
Жанр: Военный, Драма, Мелодрама
Продолжительность: 01:48:05
Перевод: Профессиональный (многоголосый, закадровый)-Режиссер: Джузеппе Торнаторе-В ролях: Моника Беллуччи, Джузеппе Сульфаро, Лучиано Федерико, Матильде Пьяна, Пьетро Нотарианни, Гаэтано Ароника, Джилберто Идонеа, Анджело Пеллегрино, Габриэлла Ди Луцио, Пиппо Проввиденти-Описание:
Малена — красавица-вдова, наваждение мужчин и предмет зависти женщин. Жены распускают о ней грязные сплетни. Мужья преследуют ее по пятам и грезят о ней.
«Мне было 13, когда я увидел ее впервые. Прошло время, я любил многих женщин, и когда мы были близки, они спрашивали: буду ли я помнить их? И я говорил: да, я буду помнить вас. Но единственная, кого я никогда не забуду — та, которая никогда не спрашивала. Малена».-Доп. информация:
Рейтинг КиноПоиск.Ru: 7.939 (28346)
Рейтинг IMDb: 7.5 (50087)-Качество: BDRip
Формат: MKV
Видео кодек: H.264
Аудио кодек: DTS
Видео: MPEG4 Video (H264) 1280x546 (143:61) 23.976fps 7 369 Kbps
Аудио: DTS 48000Hz 6ch 1536kbps
Audio #1 - 1 509 Kbps 48.0 KHz DTS Russian Дубляж "Кармен"
Audio #2 - 1 509 Kbps 48.0 KHz DTS Russian Авторский одноголосый, Ю.Сербин
Audio #3 - 1 509 Kbps 48.0 KHz DTS Russian Авторский одноголосый, А.Карповский
Audio #4 - 1 509 Kbps 48.0 KHz DTS Russian Авторский одноголосый, М.Иванов
Audio #5 - 1 509 Kbps 48.0 KHz AC-3 Italian
Text #1 - Russian UTF-8
Text #2 - Russian UTF-8
Text #3 - English UTF-8

M/I

Format : Matroska
Format version : Version 4 / Version 2
File size : 10.7 GiB
Duration : 1h 48mn
Overall bit rate : 14.1 Mbps
Encoded date : UTC 2014-02-02 09:52:43
Writing application : mkvmerge v6.7.0 ('Back to the Ground') 32bit built on Jan 10 2014 19:46:37
Writing library : libebml v1.3.0 + libmatroska v1.4.1
Video
ID : 1
Format : AVC
Format/Info : Advanced Video Codec
Format profile : [email protected]
Format settings, CABAC : Yes
Format settings, ReFrames : 12 frames
Codec ID : V_MPEG4/ISO/AVC
Duration : 1h 48mn
Bit rate : 7 369 Kbps
Width : 1 280 pixels
Height : 546 pixels
Display aspect ratio : 2.35:1
Frame rate mode : Constant
Frame rate : 23.976 fps
Color space : YUV
Chroma subsampling : 4:2:0
Bit depth : 8 bits
Scan type : Progressive
Bits/(Pixel*Frame) : 0.440
Stream size : 5.56 GiB (52%)
Writing library : x264 core 129 r2245 bc13772
Encoding settings : cabac=1 / ref=12 / deblock=1:-3:-3 / analyse=0x3:0x113 / me=tesa / subme=10 / psy=1 / psy_rd=1.05:0.00 / mixed_ref=1 / me_range=16 / chroma_me=1 / trellis=2 / 8x8dct=1 / cqm=0 / deadzone=21,11 / fast_pskip=0 / chroma_qp_offset=-2 / threads=12 / lookahead_threads=2 / sliced_threads=0 / nr=0 / decimate=0 / interlaced=0 / bluray_compat=0 / constrained_intra=0 / bframes=8 / b_pyramid=2 / b_adapt=2 / b_bias=0 / direct=3 / weightb=1 / open_gop=0 / weightp=2 / keyint=250 / keyint_min=23 / scenecut=40 / intra_refresh=0 / rc=crf / mbtree=0 / crf=15.5 / qcomp=0.50 / qpmin=0 / qpmax=69 / qpstep=4 / ip_ratio=1.40 / pb_ratio=1.30 / aq=1:0.70 / zones=27994,31060,b=2/54513,55218,b=2/68314,70588,b=2/85882,87787,b=2/104473,106751,b=2
Language : English
Default : Yes
Forced : No
Matrix coefficients : BT.709
Audio #1
ID : 2
Format : DTS
Format/Info : Digital Theater Systems
Mode : 16
Format settings, Endianness : Big
Codec ID : A_DTS
Duration : 1h 48mn
Bit rate mode : Constant
Bit rate : 1 509 Kbps
Channel count : 6 channels
Channel positions : Front: L C R, Side: L R, LFE
Sampling rate : 48.0 KHz
Bit depth : 16 bits
Compression mode : Lossy
Stream size : 1.14 GiB (11%)
Title : Дубляж "Кармен"
Language : Russian
Default : Yes
Forced : No
Audio #2
ID : 3
Format : DTS
Format/Info : Digital Theater Systems
Mode : 16
Format settings, Endianness : Big
Codec ID : A_DTS
Duration : 1h 48mn
Bit rate mode : Constant
Bit rate : 1 509 Kbps
Channel count : 6 channels
Channel positions : Front: L C R, Side: L R, LFE
Sampling rate : 48.0 KHz
Bit depth : 24 bits
Compression mode : Lossy
Stream size : 1.14 GiB (11%)
Title : Авторский одноголосый, Ю.Сербин
Language : Russian
Default : No
Forced : No
Audio #3
ID : 4
Format : DTS
Format/Info : Digital Theater Systems
Mode : 16
Format settings, Endianness : Big
Codec ID : A_DTS
Duration : 1h 48mn
Bit rate mode : Constant
Bit rate : 1 509 Kbps
Channel count : 6 channels
Channel positions : Front: L C R, Side: L R, LFE
Sampling rate : 48.0 KHz
Bit depth : 24 bits
Compression mode : Lossy
Stream size : 1.14 GiB (11%)
Title : Авторский одноголосый, А.Карповский
Language : Russian
Default : No
Forced : No
Audio #4
ID : 5
Format : AC-3
Format/Info : Audio Coding 3
Mode extension : CM (complete main)
Format settings, Endianness : Big
Codec ID : A_AC3
Duration : 1h 48mn
Bit rate mode : Constant
Bit rate : 448 Kbps
Channel count : 6 channels
Channel positions : Front: L C R, Side: L R, LFE
Sampling rate : 48.0 KHz
Bit depth : 16 bits
Compression mode : Lossy
Stream size : 346 MiB (3%)
Title : Авторский одноголосый, М.Иванов
Language : Russian
Default : No
Forced : No
Audio #5
ID : 6
Format : DTS
Format/Info : Digital Theater Systems
Mode : 16
Format settings, Endianness : Big
Codec ID : A_DTS
Duration : 1h 48mn
Bit rate mode : Constant
Bit rate : 1 509 Kbps
Channel count : 6 channels
Channel positions : Front: L C R, Side: L R, LFE
Sampling rate : 48.0 KHz
Bit depth : 24 bits
Compression mode : Lossy
Stream size : 1.14 GiB (11%)
Language : Italian
Default : No
Forced : No
Text #1
ID : 7
Format : UTF-8
Codec ID : S_TEXT/UTF8
Codec ID/Info : UTF-8 Plain Text
Title : форсированные
Language : Russian
Default : Yes
Forced : No
Text #2
ID : 8
Format : UTF-8
Codec ID : S_TEXT/UTF8
Codec ID/Info : UTF-8 Plain Text
Language : Russian
Default : No
Forced : No
Text #3
ID : 9
Format : UTF-8
Codec ID : S_TEXT/UTF8
Codec ID/Info : UTF-8 Plain Text
Language : English
Default : No
Forced : No
Menu
00:00:00.000 : en:00:00:00.000
00:06:36.396 : en:00:06:36.396
00:12:25.828 : en:00:12:25.828
00:22:42.027 : en:00:22:42.027
00:29:08.497 : en:00:29:08.497
00:35:57.489 : en:00:35:57.489
00:45:14.295 : en:00:45:14.295
00:52:11.211 : en:00:52:11.211
00:57:40.123 : en:00:57:40.123
01:04:36.289 : en:01:04:36.289
01:10:24.971 : en:01:10:24.971
01:18:04.305 : en:01:18:04.305
01:23:44.770 : en:01:23:44.770
01:31:49.671 : en:01:31:49.671
01:38:24.482 : en:01:38:24.482
01:42:57.880 : en:01:42:57.880

Скриншоты












Последний раз редактировалось: Nosferatu (2014-05-04 22:15), всего редактировалось 2 раз(а)

Создавать темы 04-Май-2014 18:17

[Профиль]  [ЛС] 

ararat10

Стаж: 4 года

Сообщений: 9

Может быть сожмёте этот фильм и потом будете раздавать? А то качать придётся я очень долго....

Создавать темы 04-Май-2014 18:29

[Профиль]  [ЛС] 

Nosferatu ®

Стаж: 4 года 8 месяцев

Сообщений: 79

Симпатии: 5

823798Может быть сожмёте этот фильм и потом будете раздавать? А то качать придётся я очень долго....
Вот Вам https://tas-ix.net/viewtopic.php?t=43253

Создавать темы 04-Май-2014 18:31

[Профиль]  [ЛС] 

ararat10

Стаж: 4 года

Сообщений: 9

О!
Огромное спасибо)

Создавать темы 04-Май-2014 18:57

[Профиль]  [ЛС] 

shon86

Стаж: 4 года 6 месяцев

Сообщений: 159

Симпатии: 10

823798Может быть сожмёте этот фильм и потом будете раздавать? А то качать придётся я очень долго....
не надо, такие фильмы нужно смотреть в хорошем качестве!

Создавать темы 05-Май-2014 18:19

[Профиль]  [ЛС] 

Akmal88888

Стаж: 5 лет 10 месяцев

Сообщений: 11

раздичу дайте на 60 % остановилься

Создавать темы 02-Июн-2017 01:19

[Профиль]  [ЛС] 

Cry

Стаж: 5 лет 5 месяцев

Сообщений: 40

Можете встать на раздачу??

Создавать темы 07-Июл-2017 07:18

[Профиль]  [ЛС] 

kebridon

Стаж: 3 года 9 месяцев

Сообщений: 7

Симпатии: 1

Встаньте на раздачу.

Создавать темы 23-Июл-2017 14:07

[Профиль]  [ЛС] 
Показать сообщения:    
Ответить на тему

Текущее время: 19-Ноя 19:03

Часовой пояс: UTC + 5



Вы не можете начинать темы
Вы не можете отвечать на сообщения
Вы не можете редактировать свои сообщения
Вы не можете удалять свои сообщения
Вы не можете голосовать в опросах
Вы не можете прикреплять файлы к сообщениям
Вы не можете скачивать файлы