StarПерцы / Last Vegas (Джон Тёртелтауб) [2013 г., Драма, Комедия, BDRip ] Original (Eng) + Subs ( Eng)

Ответить на тему
 

Zab ®

Стаж: 6 лет 5 месяцев

Сообщений: 476

Симпатии: 424

StarПерцы / Last Vegas -Год выпуска: 2013
Страна: США
Жанр: Драма, Комедия
Продолжительность: 01:45:00
Перевод: Отсутствует
Субтитры :Английские
-Режиссер: Джон Тёртелтауб

В ролях
: Майкл Дуглас, Роберт Де Ниро, Морган Фримен, Кевин Клайн, Мэри Стинберген, Джерри Феррара, Романи Малко, Роджер Барт, Джоанна Глисон, Майкл Или-Описание: Билли, Пэдди, Арчи и Сэм дружат больше полувека. И когда убежденный холостяк Билли наконец-то делает предложение своей юной подружке, великолепная четверка отправляется в Лас-Вегас, чтобы скинуть с себя груз прожитого и зажечь как в последний раз. Великовозрастные гуляки и не подозревают, как за десятилетия эволюционировал Город Грехов…
- -Качество: BDRip-AVC
Формат: MKV
Видео кодек: H.26x
Аудио кодек: AC3
Видео: MPEG4 Video (H264) 1920x800 23.976fps 2150kbps
Аудио: AAC 5.1 ch (L,C,R,l,r) + LFE 48000Hz stereo 93kbps, 2 151 Kbps
-

MI

D:\Movies\Last Vegas\Last Vegas.mkv
General
Complete name : D:\Movies\desktop\Last Vegas.mkv
Format : MPEG-4
Format profile : Base Media
Codec ID : isom
File size : 1.65 GiB
Duration : 1h 44mn
Overall bit rate mode : Variable
Overall bit rate : 2 248 Kbps
Encoded date : UTC 2014-01-11 08:52:59
Tagged date : UTC 2014-01-11 08:52:59
Video #1
ID : 1
Format : AVC
Format/Info : Advanced Video Codec
Format profile : [email protected]
Format settings, CABAC : Yes
Format settings, ReFrames : 4 frames
Codec ID : avc1
Codec ID/Info : Advanced Video Coding
Duration : 1h 44mn
Bit rate : 2 151 Kbps
Maximum bit rate : 10.7 Mbps
Width : 1 920 pixels
Height : 800 pixels
Display aspect ratio : 2.40:1
Frame rate mode : Constant
Frame rate : 23.976 fps
Color space : YUV
Chroma subsampling : 4:2:0
Bit depth : 8 bits
Scan type : Progressive
Bits/(Pixel*Frame) : 0.058
Stream size : 1.58 GiB (96%)
Writing library : x264 core 135 r2 f0c1c53
Encoding settings : cabac=1 / ref=4 / deblock=1:-1:-1 / analyse=0x3:0x133 / me=umh / subme=9 / psy=1 / psy_rd=1.00:0.15 / mixed_ref=1 / me_range=24 / chroma_me=1 / trellis=2 / 8x8dct=1 / cqm=0 / deadzone=21,11 / fast_pskip=0 / chroma_qp_offset=-3 / threads=36 / lookahead_threads=3 / sliced_threads=0 / nr=0 / decimate=1 / interlaced=0 / bluray_compat=0 / constrained_intra=0 / bframes=3 / b_pyramid=2 / b_adapt=2 / b_bias=0 / direct=3 / weightb=1 / open_gop=0 / weightp=2 / keyint=250 / keyint_min=23 / scenecut=40 / intra_refresh=0 / rc_lookahead=60 / rc=2pass / mbtree=1 / bitrate=2151 / ratetol=1.0 / qcomp=0.60 / qpmin=0 / qpmax=69 / qpstep=4 / cplxblur=20.0 / qblur=0.5 / vbv_maxrate=31250 / vbv_bufsize=31250 / nal_hrd=none / ip_ratio=1.40 / aq=1:1.00
Encoded date : UTC 2014-01-11 08:52:59
Tagged date : UTC 2014-01-11 08:53:23
Color primaries : BT.709
Matrix coefficients : BT.709
Audio #2
ID : 2
Format : AAC
Format/Info : Advanced Audio Codec
Format profile : LC
Codec ID : 40
Duration : 1h 44mn
Bit rate mode : Variable
Bit rate : 93.8 Kbps
Maximum bit rate : 112 Kbps
Channel(s) : 2 channels
Channel positions : Front: L R
Sampling rate : 48.0 KHz
Compression mode : Lossy
Stream size : 70.5 MiB (4%)
Language : English
Encoded date : UTC 2014-01-11 08:53:20
Tagged date : UTC 2014-01-11 08:53:23

Скриншоты





Создавать темы 05-Май-2014 01:33

[Профиль]  [ЛС] 

Топик был перенесен из форума Фильмы за 2013 в форум HD-AVC
Mixer City

Создавать темы 05-Май-2014 07:44

 

Топик был перенесен из форума HD-AVC в форум Фильмы без перевода
Mixer City

Создавать темы 05-Май-2014 07:44

 
Показать сообщения:    
Ответить на тему

Текущее время: 26-Сен 18:53

Часовой пояс: UTC + 5



Вы не можете начинать темы
Вы не можете отвечать на сообщения
Вы не можете редактировать свои сообщения
Вы не можете удалять свои сообщения
Вы не можете голосовать в опросах
Вы не можете прикреплять файлы к сообщениям
Вы не можете скачивать файлы