Помпеи / Pompeii (Пол У. С. Андерсон) [BDRip 720p | Чистый звук (2014)]

Ответить на тему
 

sc257 ®

Стаж: 5 лет 10 месяцев

Сообщений: 12

Симпатии: 2

Помпеи / Pompeii (Пол У. С. Андерсон) [BDRip 720p | Чистый звук (2014)] Год выпуска: 2014
Выпущено:: США, Германия, Канада / Constantin Film Produktion GmbH, Don Carmody Productions, FilmDistrict, Impact Pictures
Жанр: приключения, боевик, драма, мелодрама
Продолжительность: 01:44:59
Перевод: Дублированное [Чистый звук]
Субтитры: English-В ролях: Саша Ройз, Кэрри-Энн Мосс, Адевале Акинойе-Агбаже, Эмили Браунинг, Джессика Лукас, Кифер Сазерленд, Кит Харингтон, Джо Пинг, Джаред Харрис, Карри Грэм-Режиссёр: Пол У. С. Андерсон-Описание: История любви раба Майло и благородной Кассии, обрученной с римским сенатором, на фоне извержения Везувия, которое навсегда стерло с лица земли древнеримский город Помпеи...-Качество: BDRip 720p
Формат: MKV
Видео: AVC, 4443 kb/s, 1280x536,23.976 fps
Аудио: - Russian: AC3, 192 kb/s (2 ch) / English: DTS, 1510 kb/s (6 ch)

Media Info

General
Unique ID : 192642526855757961521691083763109442168 (0x90ED99E1E974F47DBFBF18E93051B278)
Complete name :Pompei.2014.D.BDRip.720p.mkv
Format : Matroska
Format version : Version 4 / Version 2
File size : 4.51 GiB
Duration : 1h 44mn
Overall bit rate : 6 145 Kbps
Encoded date : UTC 2014-05-02 05:26:57
Writing application : mkvmerge v6.1.0 ('Old Devil') built on Mar 4 2013 09:10:42
Writing library : libebml v1.3.0 + libmatroska v1.4.0
Video
ID : 1
Format : AVC
Format/Info : Advanced Video Codec
Format profile : [email protected]
Format settings, CABAC : Yes
Format settings, ReFrames : 5 frames
Codec ID : V_MPEG4/ISO/AVC
Duration : 1h 44mn
Bit rate : 4 443 Kbps
Width : 1 280 pixels
Height : 536 pixels
Display aspect ratio : 2.40:1
Frame rate mode : Constant
Frame rate : 23.976 fps
Color space : YUV
Chroma subsampling : 4:2:0
Bit depth : 8 bits
Scan type : Progressive
Bits/(Pixel*Frame) : 0.270
Stream size : 3.17 GiB (70%)
Writing library : x264 core 142 r2431 ac76440
Encoding settings : cabac=1 / ref=5 / deblock=1:0:0 / analyse=0x3:0x133 / me=umh / subme=7 / psy=1 / psy_rd=1.00:0.00 / mixed_ref=1 / me_range=16 / chroma_me=1 / trellis=1 / 8x8dct=1 / cqm=0 / deadzone=21,11 / fast_pskip=1 / chroma_qp_offset=-2 / threads=8 / lookahead_threads=1 / sliced_threads=0 / nr=0 / decimate=1 / interlaced=0 / bluray_compat=0 / constrained_intra=0 / bframes=3 / b_pyramid=2 / b_adapt=2 / b_bias=0 / direct=3 / weightb=1 / open_gop=0 / weightp=2 / keyint=250 / keyint_min=23 / scenecut=40 / intra_refresh=0 / rc_lookahead=50 / rc=2pass / mbtree=1 / bitrate=4443 / ratetol=1.0 / qcomp=0.60 / qpmin=0 / qpmax=69 / qpstep=4 / cplxblur=20.0 / qblur=0.5 / ip_ratio=1.40 / aq=1:1.00
Language : English
Default : Yes
Forced : No
Audio #1
ID : 2
Format : AC-3
Format/Info : Audio Coding 3
Mode extension : CM (complete main)
Format settings, Endianness : Big
Codec ID : A_AC3
Duration : 1h 44mn
Bit rate mode : Constant
Bit rate : 192 Kbps
Channel count : 2 channels
Channel positions : Front: L R
Sampling rate : 48.0 KHz
Bit depth : 16 bits
Compression mode : Lossy
Stream size : 144 MiB (3%)
Language : Russian
Default : Yes
Forced : No
Audio #2
ID : 3
Format : DTS
Format/Info : Digital Theater Systems
Mode : 16
Format settings, Endianness : Big
Codec ID : A_DTS
Duration : 1h 44mn
Bit rate mode : Constant
Bit rate : 1 509 Kbps
Channel count : 6 channels
Channel positions : Front: L C R, Side: L R, LFE
Sampling rate : 48.0 KHz
Bit depth : 24 bits
Compression mode : Lossy
Stream size : 1.11 GiB (25%)
Language : English
Default : No
Forced : No
Text #1
ID : 4
Format : UTF-8
Codec ID : S_TEXT/UTF8
Codec ID/Info : UTF-8 Plain Text
Title : English
Language : English
Default : No
Forced : No
Text #2
ID : 5
Format : UTF-8
Codec ID : S_TEXT/UTF8
Codec ID/Info : UTF-8 Plain Text
Title : English SDH
Language : English
Default : No
Forced : No

Скриншоты








Создавать темы 05-Май-2014 11:53

[Профиль]  [ЛС] 

Топик был перенесен из форума Фильмы за 2014 (новинки) в форум Зарубежное кино
Иви

Создавать темы 05-Май-2014 17:20

 

sharrav

Стаж: 3 года 10 месяцев

Сообщений: 42

Симпатии: 1

Почему торент файл не скачивается?

Создавать темы 05-Май-2014 20:04

[Профиль]  [ЛС] 

sc257 ®

Стаж: 5 лет 10 месяцев

Сообщений: 12

Симпатии: 2

824331Почему торент файл не скачивается?
Без понятия! У меня все ровно загрузилось

Создавать темы 05-Май-2014 21:03

[Профиль]  [ЛС] 

Phantomhive

Стаж: 4 года 6 месяцев

Сообщений: 218

Симпатии: 10

Без понятия! У меня все ровно загрузилось
sc257, это же твоя тема конешно загрузилось!!!

Создавать темы 05-Май-2014 22:29

[Профиль]  [ЛС] 

power.r

Стаж: 5 лет 2 месяца

Сообщений: 5

у меня тоже торент файл не скачевается:(

Создавать темы 05-Май-2014 23:04

[Профиль]  [ЛС] 

razor2011

Стаж: 5 лет 3 месяца

Сообщений: 227

Симпатии: 37

Статус: ∏ премодерация

Создавать темы 06-Май-2014 08:44

[Профиль]  [ЛС] 

sc257 ®

Стаж: 5 лет 10 месяцев

Сообщений: 12

Симпатии: 2

Сидов: 2 [ 658 KB/s ] Личеров: 3 [ 0 KB/s ]

Создавать темы 06-Май-2014 10:41

[Профиль]  [ЛС] 
Показать сообщения:    
Ответить на тему

Текущее время: 17-Дек 03:17

Часовой пояс: UTC + 5



Вы не можете начинать темы
Вы не можете отвечать на сообщения
Вы не можете редактировать свои сообщения
Вы не можете удалять свои сообщения
Вы не можете голосовать в опросах
Вы не можете прикреплять файлы к сообщениям
Вы не можете скачивать файлы