Трудно Быть Богом (Алексей Герман) [2013, Фантастика, Драма, WEB-DLRip]

Страницы :  1, 2  След.

Ответить на тему
 

razor2011 ®

Стаж: 5 лет 1 месяц

Сообщений: 227

Симпатии: 37

Трудно Быть Богом Год выпуска: 2013
Страна: Россия, Среда Фетисов Филмс
Жанр: Фантастика, Драма
Продолжительность: 02:57:09
Режиссёр: Алексей Герман
В ролях: Леонид Ярмольник, Юрий Цурило, Наталья Мотева, Александр Чутко, Евгений Герчаков, Александр Ильин, Пётр Меркурьев, Олег Ботин, Константин Быков, Юрий Думчев
Описание: На планете, погружённой в глухое Средневековье, работают наблюдатели-земляне, которые пытаются бережно подправлять ход событий, не нарушая логическое развитие истории. Главный герой, дон Румата Эсторский, осознавая свою задачу сохранения нейтралитета, тем не менее, не выдерживает, когда в Арканаре (одном из городов планеты) захватывает власть «чёрное братство», свергнувшее господство «серых», столь же отвратительных, но не столь кровавых. Румата берётся за меч, чтобы покарать злодеев, и тем самым нарушает все правила и закономерности, вмешиваясь в чужой исторический процесс.
Доп. информация:

Фильм По Повести Аркадия и Бориса Стругацких "Трудно Быть Богом".
Качество видео: WEB-DLRip [Рип с WEBDL 720p]
Формат видео: AVI
Видео: XviD, 720х400 (16:9), 24,000 кадра/сек, 1267 Кбит/сек
Аудио: AC-3, 48,0 КГц, 384 Кбит/сек (6 каналов)

MediaInfo

Формат : AVI
Формат/Информация : Audio Video Interleave
Размер файла : 2,05 Гбайт
Продолжительность : 2 ч. 57 м.
Общий поток : 1660 Кбит/сек
Программа кодирования : VirtualDubMod 1.5.10.2 (build 2540/release)
Библиотека кодирования : VirtualDubMod build 2540/release
Видео
Идентификатор : 0
Формат : MPEG-4 Visual
Профиль формата : Advanced Simple@L5
Параметр BVOP формата : 2
Параметр QPel формата : Нет
Параметр GMC формата : Без точки перехода
Параметр матрицы формата : Выборочная
Идентификатор кодека : XVID
Идентификатор кодека/Подсказка : XviD
Продолжительность : 2 ч. 57 м.
Битрейт : 1267 Кбит/сек
Ширина : 720 пикселей
Высота : 400 пикселей
Соотношение сторон : 16:9
Частота кадров : 24,000 кадра/сек
Цветовое пространство : YUV
Субдискретизация насыщенности : 4:2:0
Битовая глубина : 8 бит
Тип развёртки : Прогрессивная
Метод сжатия : С потерями
Бит/(Пиксели*Кадры) : 0.183
Размер потока : 1,57 Гбайт (76%)
Библиотека кодирования : XviD 1.2.1 (UTC 2008-12-04)
Аудио
Идентификатор : 1
Формат : AC-3
Формат/Информация : Audio Coding 3
Расширение режима : CM (complete main)
Параметр Endianness формата : Big
Идентификатор кодека : 2000
Продолжительность : 2 ч. 57 м.
Вид битрейта : Постоянный
Битрейт : 384 Кбит/сек
Каналы : 6 каналов
Расположение каналов : Front: L C R, Side: L R, LFE
Частота : 48,0 КГц
Битовая глубина : 16 бит
Метод сжатия : С потерями
Размер потока : 487 Мбайт (23%)
Выравнивание : Разделение по промежуткам
Продолжительность промежутка : 42 мс. (1,00 видеокадр)
Время предзагрузки промежутка : 500 мс.

Скриншоты





Последний раз редактировалось: razor2011 (2014-05-06 09:56), всего редактировалось 1 раз

Создавать темы 06-Май-2014 09:19

[Профиль]  [ЛС] 

extrimal1994

Стаж: 4 года 8 месяцев

Сообщений: 153

Симпатии: 26

фильм российский это понятно, но думаю, нужно указать "страну" а за релиз спасибо ;)

Создавать темы 06-Май-2014 09:47

[Профиль]  [ЛС] 

blake

Стаж: 5 лет 7 месяцев

Сообщений: 38

Симпатии: 2

Влился в раздачу...

Создавать темы 06-Май-2014 13:16

[Профиль]  [ЛС] 

sanders

Стаж: 5 лет 8 месяцев

Сообщений: 1

Благодарю. Ждал.

Создавать темы 06-Май-2014 16:25

[Профиль]  [ЛС] 

Михаил1

Стаж: 4 года 11 месяцев

Сообщений: 67

сэмпл наверное можно было бы залить на mover.uz

Создавать темы 06-Май-2014 17:12

[Профиль]  [ЛС] 

hard92

Стаж: 4 года 11 месяцев

Сообщений: 60

бред пит

Создавать темы 06-Май-2014 19:08

[Профиль]  [ЛС] 

Gleam

Стаж: 4 года 4 месяца

Сообщений: 4

Год выпуска: 2013.

Создавать темы 06-Май-2014 22:03

[Профиль]  [ЛС] 

outoforder

Стаж: 4 года 11 месяцев

Сообщений: 812

Симпатии: 172

скрины прям ураган

Создавать темы 06-Май-2014 22:07

[Профиль]  [ЛС] 

pct

Стаж: 6 лет 8 месяцев

Сообщений: 120

Симпатии: 12

Слишком много говна в фильме, а так нормально, средневековье чёткое получилось + Ярмольник - красавчик!

Создавать темы 09-Май-2014 09:12

[Профиль]  [ЛС] 

Топик был перенесен из форума Фильмы за 2014 (новинки) в форум Фильмы за 2014 (новинки)
mp1988

Создавать темы 09-Май-2014 20:53

 

Топик был перенесен из форума Фильмы за 2014 (новинки) в форум Фильмы за 2013
mp1988

Создавать темы 09-Май-2014 20:54

 

igor1968

Стаж: 5 лет 7 месяцев

Сообщений: 366

Симпатии: 197

Спасибо!

Создавать темы 09-Май-2014 21:35

[Профиль]  [ЛС] 

вахоб

Стаж: 6 лет 3 месяца

Сообщений: 14

я вообще не понял о чем они там болтают

Создавать темы 12-Май-2014 08:17

[Профиль]  [ЛС] 

Wolfling

Стаж: 4 года 8 месяцев

Сообщений: 48

Симпатии: 3

Да уж... говённый фильм о говне)

Создавать темы 22-Май-2014 23:58

[Профиль]  [ЛС] 

Theofrast

Стаж: 6 лет 8 месяцев

Сообщений: 33

Симпатии: 30

22-й век, полдень.
Потомки российских кинематографистов, которых служба КомКон-2 выслала из Солнечной системы на 101-й световой год в качестве высшей меры санитарной защиты, основали собственную колонию Арык-Канар на некогда цветущей планете Гей-Германика.
Алексей Алексеевич Герман-шестой по кличке Румата делает долгие безуспешные попытки честным трудом заслужить право вернуться на Землю в коммунистическое общество...

Создавать темы 26-Май-2014 20:18

[Профиль]  [ЛС] 
Показать сообщения:    
Ответить на тему

Текущее время: 19-Окт 17:55

Часовой пояс: UTC + 5



Вы не можете начинать темы
Вы не можете отвечать на сообщения
Вы не можете редактировать свои сообщения
Вы не можете удалять свои сообщения
Вы не можете голосовать в опросах
Вы не можете прикреплять файлы к сообщениям
Вы не можете скачивать файлы