[#221] Остров проклятых / Shutter Island (Мартин Скорсезе) [2010 - триллер, драма, детектив - BDRip (источник: Blu-ray Disc)]

Ответить на тему
 

sc257 ®

Стаж: 5 лет 9 месяцев

Сообщений: 12

Симпатии: 2

Остров проклятых / Shutter Island
-Год выпуска: 2010
Страна: США Paramount Pictures
Жанр: триллер, драма, детектив
Продолжительность: 02:18:05
Перевод: Дублированный (лицензия)
Субтитры: Русские, Английские-Режиссёр: Мартин Скорсезе
В ролях: Леонардо ДиКаприо, Марк Руффало, Бен Кингсли, Макс фон Сюдов, Мишель Уильямс, Эмили Мортимер, Патришия Кларксон, Джеки Эрл Хейли, Тед Левайн, Джон Кэрролл Линч-Описание: Два американских судебных пристава отправляются на один из островов в штате Массачусетс, чтобы расследовать исчезновение пациентки клиники для умалишенных преступников. При проведении расследования им придется столкнуться с паутиной лжи, обрушившимся ураганом и смертельным бунтом обитателей клиники.
-Качество: BDRip (источник: Blu-ray Disc)
Формат: MKV
Кодек: x264
Видео: 1920x816 (2,35:1), 23.976 fps, 7150 kbps
Аудио #1: AC-3, 6 ch, 448 kbps (Rus)
Аудио #2: AC-3, 6 ch, 448 kbps (Eng)

Media Info

General
Unique ID : 246882310626487923993969144119735383061 (0xB9BBCDB0B3AD2274A8ED57313DC07415)
Complete name : Shutter.Island.2010.BDRip.1080p.Rus.Eng.mkv
Format : Matroska
Format version : Version 2
File size : 7.76 GiB
Duration : 2h 18mn
Overall bit rate : 8 045 Kbps
Movie name : Остров проклятых / Shutter Island (2010)
Encoded date : UTC 2012-07-19 13:13:03
Writing application : mkvmerge v5.7.0 ('The Whirlwind') built on Jul 8 2012 20:08:51
Writing library : libebml v1.2.3 + libmatroska v1.3.0
Video
ID : 1
Format : AVC
Format/Info : Advanced Video Codec
Format profile : [email protected]
Format settings, CABAC : Yes
Format settings, ReFrames : 5 frames
Codec ID : V_MPEG4/ISO/AVC
Duration : 2h 18mn
Bit rate : 7 150 Kbps
Width : 1 920 pixels
Height : 816 pixels
Display aspect ratio : 2.35:1
Frame rate mode : Constant
Frame rate : 23.976 fps
Color space : YUV
Chroma subsampling : 4:2:0
Bit depth : 8 bits
Scan type : Progressive
Bits/(Pixel*Frame) : 0.190
Stream size : 6.74 GiB (87%)
Title : Release by AlexKa
Writing library : x264 core 125 r2200 999b753
Encoding settings : cabac=1 / ref=5 / deblock=1:-3:-3 / analyse=0x3:0x133 / me=umh / subme=10 / psy=1 / psy_rd=1.00:0.10 / mixed_ref=1 / me_range=32 / chroma_me=1 / trellis=2 / 8x8dct=1 / cqm=0 / deadzone=21,11 / fast_pskip=0 / chroma_qp_offset=-3 / threads=12 / lookahead_threads=2 / sliced_threads=0 / nr=0 / decimate=0 / interlaced=0 / bluray_compat=0 / constrained_intra=0 / bframes=5 / b_pyramid=2 / b_adapt=2 / b_bias=0 / direct=3 / weightb=1 / open_gop=0 / weightp=2 / keyint=240 / keyint_min=23 / scenecut=40 / intra_refresh=0 / rc=2pass / mbtree=0 / bitrate=7150 / ratetol=1.0 / qcomp=0.60 / qpmin=0 / qpmax=69 / qpstep=4 / cplxblur=20.0 / qblur=0.5 / ip_ratio=1.40 / pb_ratio=1.30 / aq=1:1.00
Language : English
Default : Yes
Forced : No
Audio #1
ID : 2
Format : AC-3
Format/Info : Audio Coding 3
Mode extension : CM (complete main)
Format settings, Endianness : Big
Codec ID : A_AC3
Duration : 2h 18mn
Bit rate mode : Constant
Bit rate : 448 Kbps
Channel(s) : 6 channels
Channel positions : Front: L C R, Side: L R, LFE
Sampling rate : 48.0 KHz
Bit depth : 16 bits
Compression mode : Lossy
Stream size : 442 MiB (6%)
Title : Rus
Language : Russian
Default : Yes
Forced : No
Audio #2
ID : 3
Format : AC-3
Format/Info : Audio Coding 3
Mode extension : CM (complete main)
Format settings, Endianness : Big
Codec ID : A_AC3
Duration : 2h 18mn
Bit rate mode : Constant
Bit rate : 448 Kbps
Channel(s) : 6 channels
Channel positions : Front: L C R, Side: L R, LFE
Sampling rate : 48.0 KHz
Bit depth : 16 bits
Compression mode : Lossy
Stream size : 442 MiB (6%)
Title : Eng
Language : English
Default : No
Forced : No
Text #1
ID : 4
Format : UTF-8
Codec ID : S_TEXT/UTF8
Codec ID/Info : UTF-8 Plain Text
Title : Rus
Language : Russian
Default : No
Forced : No
Text #2
ID : 5
Format : UTF-8
Codec ID : S_TEXT/UTF8
Codec ID/Info : UTF-8 Plain Text
Title : Eng
Language : English
Default : No
Forced : No
Menu
00:00:00.000 : :Chapter 01
00:06:33.143 : :Chapter 02
00:13:07.787 : :Chapter 03
00:20:20.928 : :Chapter 04
00:26:35.636 : :Chapter 05
00:34:54.801 : :Chapter 06
00:41:23.523 : :Chapter 07
00:48:29.573 : :Chapter 08
00:55:17.898 : :Chapter 09
01:04:02.672 : :Chapter 10
01:10:05.410 : :Chapter 11
01:16:54.401 : :Chapter 12
01:23:05.731 : :Chapter 13
01:31:37.742 : :Chapter 14
01:37:29.719 : :Chapter 15
01:45:39.083 : :Chapter 16
01:52:29.785 : :Chapter 17
01:57:39.970 : :Chapter 18
02:03:50.923 : :Chapter 19
02:10:30.990 : :Chapter 20

x264

x264 [info]: frame I:1728 Avg QP:16.28 size:183669
x264 [info]: frame P:43493 Avg QP:19.13 size: 70193
x264 [info]: frame B:153414 Avg QP:21.09 size: 26278

Скриншоты

Создавать темы 06-Май-2014 13:42

[Профиль]  [ЛС] 

Slapper

Стаж: 3 года 11 месяцев

Сообщений: 2193

Симпатии: 213

Сидов:  1  [  267 KB/s  ]   Подробная статистика пиров
Кому он раздает?? самому себе?

Создавать темы 06-Май-2014 22:06

[Профиль]  [ЛС] 

sc257 ®

Стаж: 5 лет 9 месяцев

Сообщений: 12

Симпатии: 2

824900
Сидов:  1  [  267 KB/s  ]   Подробная статистика пиров
Кому он раздает?? самому себе?
Возможно. Ибо у меня две точки, откуда я качаю и раздаю. Иногда это хороший способ перенести файлы, когда нету флешки

Создавать темы 06-Май-2014 22:58

[Профиль]  [ЛС] 

Slapper

Стаж: 3 года 11 месяцев

Сообщений: 2193

Симпатии: 213

sc257, если 2 точки, не легче локальную сеть провести, скорость значительно выше будет

Создавать темы 06-Май-2014 23:24

[Профиль]  [ЛС] 

sc257 ®

Стаж: 5 лет 9 месяцев

Сообщений: 12

Симпатии: 2

824959sc257, если 2 точки, не легче локальную сеть провести, скорость значительно выше будет
Не легче если расстояние больше 200 метров друг от друга)

Создавать темы 07-Май-2014 07:59

[Профиль]  [ЛС] 

Slapper

Стаж: 3 года 11 месяцев

Сообщений: 2193

Симпатии: 213

sc257, аа )))

Создавать темы 07-Май-2014 12:55

[Профиль]  [ЛС] 

sc257 ®

Стаж: 5 лет 9 месяцев

Сообщений: 12

Симпатии: 2

Ура! Проверенно)

Создавать темы 07-Май-2014 17:39

[Профиль]  [ЛС] 

Kakcam

Стаж: 6 лет 10 месяцев

Сообщений: 137

Симпатии: 7

https://tas-ix.net/viewtopic.php?t=87429 повтор имдб, создали бы в соответствующем раздале у вас же блу рей

Создавать темы 12-Июн-2014 13:21

[Профиль]  [ЛС] 
Показать сообщения:    
Ответить на тему

Текущее время: 23-Окт 14:58

Часовой пояс: UTC + 5



Вы не можете начинать темы
Вы не можете отвечать на сообщения
Вы не можете редактировать свои сообщения
Вы не можете удалять свои сообщения
Вы не можете голосовать в опросах
Вы не можете прикреплять файлы к сообщениям
Вы не можете скачивать файлы