Привет, Скуби-Ду / Aloha, Scooby-Doo (2005) BDRip от HQCLUB (Тим Молтби / Tim Maltby) [2005 г., мультфильм, комедия, детектив, семейный, BDRip]

Ответить на тему
 

Le_Grand ®

Стаж: 3 года 10 месяцев

Сообщений: 36

Привет, Скуби-Ду / Aloha, Scooby-Doo (2005) BDRip от HQCLUB

Год выпуска: 2005
Жанр: мультфильм, комедия, детектив, семейный
Продолжительность: 01:14:23
Режиссер: Тим Молтби / Tim Maltby
В ролях: Фрэнк Уэлкер (Frank Welker), Кэйси Касэм (Casey Kasem), Минди Кон (Mindy Cohn), Грэй ДеЛисл (Grey DeLisle), Рэй Буматаи (Ray Bumatai), Тиа Каррере (Tia Carrere), Тери Гарр (Teri Garr), Марио Лопез (Mario Lopez (в титрах: Mario López)
Описание: Шегги, Скуби-Ду и его команда на этот раз отправляются на Гавайи, в Большую Кануну, чтобы посмотреть соревнования по серфингу Ханахуны и найти ужасного монстра, который страстно хочет помешать состязаниям.
Жители острова уверены, что постройка нового комплекса для отдыха на священной земле разозлит духов, но гости этому не верят… Когда армия маленьких злых демонов начинает нападать на серферов — пророчество сбывается.
Интересно, сумеет ли Дафна разобраться с этим опасным делом прежде, чем попадет в жуткую переделку?!

Доп. информация:
Режиссер : Тим Молтби
Сценарист : Темпл Мэтьюз
Продюсер : Тим Молтби

Качество: BDRip
Формат: AVI
Видео кодек: XviD
Аудио кодек: AC3
Видео: 704x400 (1.76:1), 23.976 fps, XviD build 64, 1942 kbps avg, 0.29 bit/pixel
Аудио: 48 kHz, AC3 Dolby Digital, 2/0 (L,R) ch, 192 kbps |DUB|
+Оригинальные субтитры (ENG)

MediaInfo

General
Complete name : Privet.Skubi.Du.2005.TRIPLE.BDRip.XviD.AC3.-HELLYWOOD.avi
Format : AVI
Format/Info : Audio Video Interleave
File size : 1.45 GiB
Duration : 1h 14mn
Overall bit rate : 2 795 Kbps
Movie name : Privet.Skubi.Du.2005.TRIPLE.BDRip.XviD.AC3.-HELLYWOOD
Director : Gummy
Writing application : VirtualDubMod 1.5.10.2 (build 2542/release)
Copyright : http://forum.hellywood.ru/forum.php
Video
ID : 0
Format : MPEG-4 Visual
Format profile : Advanced [email protected]
Format settings, BVOP : Yes
Format settings, QPel : No
Format settings, GMC : No warppoints
Format settings, Matrix : Custom
Codec ID : XVID
Codec ID/Hint : XviD
Duration : 1h 14mn
Bit rate : 1 944 Kbps
Width : 704 pixels
Height : 400 pixels
Display aspect ratio : 16:9
Frame rate : 23.976 fps
Color space : YUV
Chroma subsampling : 4:2:0
Bit depth : 8 bits
Scan type : Progressive
Bits/(Pixel*Frame) : 0.288
Stream size : 1.01 GiB (70%)
Writing library : XviD 64
Audio #1
ID : 1
Format : AC-3
Format/Info : Audio Coding 3
Mode extension : CM (complete main)
Codec ID : 2000
Duration : 1h 14mn
Bit rate mode : Constant
Bit rate : 192 Kbps
Channel(s) : 2 channels
Channel positions : Front: L R
Sampling rate : 48.0 KHz
Bit depth : 16 bits
Stream size : 102 MiB (7%)
Alignment : Split accross interleaves
Interleave, duration : 42 ms (1.00 video frame)
Interleave, preload duration : 500 ms
Audio #2
ID : 2
Format : AC-3
Format/Info : Audio Coding 3
Mode extension : CM (complete main)
Codec ID : 2000
Duration : 1h 14mn
Bit rate mode : Constant
Bit rate : 192 Kbps
Channel(s) : 2 channels
Channel positions : Front: L R
Sampling rate : 48.0 KHz
Bit depth : 16 bits
Stream size : 102 MiB (7%)
Alignment : Split accross interleaves
Interleave, duration : 42 ms (1.00 video frame)
Interleave, preload duration : 500 ms
Audio #3
ID : 3
Format : AC-3
Format/Info : Audio Coding 3
Mode extension : CM (complete main)
Codec ID : 2000
Duration : 1h 14mn
Bit rate mode : Constant
Bit rate : 448 Kbps
Channel(s) : 6 channels
Channel positions : Front: L C R, Side: L R, LFE
Sampling rate : 48.0 KHz
Bit depth : 16 bits
Stream size : 238 MiB (16%)
Alignment : Split accross interleaves
Interleave, duration : 42 ms (1.00 video frame)
Interleave, preload duration : 500 ms

Скриншоты







Создавать темы 06-Май-2014 22:57

[Профиль]  [ЛС] 
Показать сообщения:    
Ответить на тему

Текущее время: 18-Окт 20:01

Часовой пояс: UTC + 5



Вы не можете начинать темы
Вы не можете отвечать на сообщения
Вы не можете редактировать свои сообщения
Вы не можете удалять свои сообщения
Вы не можете голосовать в опросах
Вы не можете прикреплять файлы к сообщениям
Вы не можете скачивать файлы