Зови меня сумасшедшим / Call Me Crazy: A Five Film (Лора Дерн, Брайс Даллас Ховард) [2013, Драма, WEB-DLRip]

Ответить на тему
 

Каротажник ®

Стаж: 3 года 11 месяцев

Сообщений: 195

Симпатии: 211

Зови меня сумасшедшим / Call Me Crazy: A Five Film

Год выпуска: 2013
Страна: США
Жанр: Драма

Продолжительность: 85 мин. / 01:25
Перевод: Профессиональный многоголосый [iTunes]

Режиссёр: Лора Дерн, Брайс Даллас Ховард
В ролях: Бриттани Сноу, Дженнифер Хадсон, Сара Хайланд, Мелисса Лео, Митч Раус, Октавия Спенсер, Софья Васильева, Эрни Хадсон, Джейсон Риттер, Джин Смарт

Фильм состоит из пяти коротких историй, каждая из которых названа именем главного героя (Люси, Эдди, Эллисон, Грейс и Мэгги). Пять историй, но каждого из пяти персонажей объединяет один недуг: психическое расстройство.




Качество: WEB-DLRip
Формат: Avi

Видео: Xvid 720x400 23.976fps 1820kbps
Аудио 1: AC3 48000Hz stereo 192kbps
Аудио 2: AC3 48000Hz stereo 192kbps

Media Info

Format : AVI
Format/Info : Audio Video Interleave
File size : 1.37 GiB
Duration : 1h 28mn
Overall bit rate : 2 219 Kbps
Writing application : VirtualDubMod 1.5.10.2 (build 2540/release)
Writing library : VirtualDubMod build 2540/release
Video
ID : 0
Format : MPEG-4 Visual
Format profile : Advanced [email protected]
Format settings, BVOP : 2
Format settings, QPel : No
Format settings, GMC : No warppoints
Format settings, Matrix : Default (MPEG)
Codec ID : XVID
Codec ID/Hint : XviD
Duration : 1h 28mn
Bit rate : 1 821 Kbps
Width : 720 pixels
Height : 400 pixels
Display aspect ratio : 16:9
Frame rate : 23.976 fps
Color space : YUV
Chroma subsampling : 4:2:0
Bit depth : 8 bits
Scan type : Progressive
Compression mode : Lossy
Bits/(Pixel*Frame) : 0.264
Stream size : 1.12 GiB (82%)
Writing library : XviD 1.2.1 (UTC 2008-12-04)
Audio #1
ID : 1
Format : AC-3
Format/Info : Audio Coding 3
Mode extension : CM (complete main)
Format settings, Endianness : Big
Codec ID : 2000
Duration : 1h 28mn
Bit rate mode : Constant
Bit rate : 192 Kbps
Channel(s) : 2 channels
Channel positions : Front: L R
Sampling rate : 48.0 KHz
Bit depth : 16 bits
Compression mode : Lossy
Stream size : 121 MiB (9%)
Alignment : Split accross interleaves
Interleave, duration : 42 ms (1.00 video frame)
Interleave, preload duration : 500 ms
Audio #2
ID : 2
Format : AC-3
Format/Info : Audio Coding 3
Mode extension : CM (complete main)
Format settings, Endianness : Big
Codec ID : 2000
Duration : 1h 28mn
Bit rate mode : Constant
Bit rate : 192 Kbps
Channel(s) : 2 channels
Channel positions : Front: L R
Sampling rate : 48.0 KHz
Bit depth : 16 bits
Compression mode : Lossy
Stream size : 121 MiB (9%)
Alignment : Split accross interleaves
Interleave, duration : 42 ms (1.00 video frame)
Interleave, preload duration : 500 ms

Скриншоты


Создавать темы 08-Май-2014 13:44

[Профиль]  [ЛС] 
Показать сообщения:    
Ответить на тему

Текущее время: 25-Сен 05:52

Часовой пояс: UTC + 5



Вы не можете начинать темы
Вы не можете отвечать на сообщения
Вы не можете редактировать свои сообщения
Вы не можете удалять свои сообщения
Вы не можете голосовать в опросах
Вы не можете прикреплять файлы к сообщениям
Вы не можете скачивать файлы