Джек Райан: Теория хаоса / Jack Ryan: Shadow Recruit (Кеннет Брана / Kenneth Branagh) [2014, США, Боевик, триллер, драма, WEB-DL 720p] Dub [Чистый звук] + Original Eng + Subs

Ответить на тему
 

yusuf.0088 ®

Стаж: 3 года 10 месяцев

Сообщений: 116

Симпатии: 69

Джек Райан: Теория хаоса / Jack Ryan: Shadow Recruit
«Главное оружие – интеллект»
-- Год выпуска: 2014
Страна: США
Жанр: Боевик, триллер, драма
Продолжительность: 01:45:48--Перевод: Профессиональный (полное дублирование) [Чистый звук]
Оригинальная дорожка: английский
Cубтитры: Английские--Режиссер: Кеннет Брана / Kenneth Branagh--В ролях: Крис Пайн, Кира Найтли, Кевин Костнер, Кеннет Брана, Колм Фиор, Джемма Чан, Нонсо Анози, Карен Дэвид, Дэвид Пэймер, Ханна Тейлор-Гордон--Описание: Являющийся финансовым аналитиком Райан переезжает в Москву для работы на некоего миллиардера. И именно этот нувориш обставит дела таким образом, чтобы на Райна пали все подозрения в организации террористического сговора с целью обрушить экономику США. И Джеку не остается ничего иного, как попытаться одновременно очистить свое имя, обезвредить заговор и спасти жену, взятую миллиардером в заложники.-- --Качество: WEB-DL 720p
Формат: MKV
Аудио кодек: AC3--Видео: MPEG-4 AVC / [email protected] / 3893 Кбит/с, 1280x530 / 23,976 кадра/сек
Аудио: Русский AC3 6 ch / 384 Кбит/с / 48КГц |Дубляж|
Аудио 2: Английский / AC3 6ch / 48 KHz / 384 kbps |Original|

MediaInfo

Формат : Matroska
Версия формата : Version 4 / Version 2
Размер файла : 3,47 Гбайт
Продолжительность : 1 ч. 45 м.
Общий поток : 4690 Кбит/сек
Дата кодирования : UTC 2014-05-07 17:16:49
Программа кодирования : mkvmerge v6.5.0 ('Isn't she lovely') built on Oct 20 2013 12:50:05
Библиотека кодирования : libebml v1.3.0 + libmatroska v1.4.1
Видео
Идентификатор : 1
Формат : AVC
Формат/Информация : Advanced Video Codec
Профиль формата : [email protected]
Параметр CABAC формата : Нет
Параметр ReFrames формата : 2 кадра
Идентификатор кодека : V_MPEG4/ISO/AVC
Продолжительность : 1 ч. 45 м.
Битрейт : 3893 Кбит/сек
Ширина : 1280 пикселей
Высота : 530 пикселей
Соотношение сторон : 2,40:1
Режим частоты кадров : Постоянный
Частота кадров : 23,976 кадра/сек
Цветовое пространство : YUV
Субдискретизация насыщенности : 4:2:0
Битовая глубина : 8 бит
Тип развёртки : Прогрессивная
Бит/(Пиксели*Кадры) : 0.239
Размер потока : 2,88 Гбайт (83%)
Язык : English
Default : Да
Forced : Нет
Основные цвета : BT.709
Характеристики трансфера : BT.709
Коэффициенты матрицы : BT.709
Аудио #1
Идентификатор : 2
Формат : AC-3
Формат/Информация : Audio Coding 3
Расширение режима : CM (complete main)
Параметр Endianness формата : Big
Идентификатор кодека : A_AC3
Продолжительность : 1 ч. 45 м.
Вид битрейта : Постоянный
Битрейт : 320 Кбит/сек
Каналы : 2 канала
Расположение каналов : Front: L R
Частота : 48,0 КГц
Битовая глубина : 16 бит
Метод сжатия : С потерями
Размер потока : 242 Мбайт (7%)
Default : Да
Forced : Нет
Аудио #2
Идентификатор : 3
Формат : AC-3
Формат/Информация : Audio Coding 3
Расширение режима : CM (complete main)
Параметр Endianness формата : Big
Идентификатор кодека : A_AC3
Продолжительность : 1 ч. 45 м.
Вид битрейта : Постоянный
Битрейт : 384 Кбит/сек
Каналы : 6 каналов
Расположение каналов : Front: L C R, Side: L R, LFE
Частота : 48,0 КГц
Битовая глубина : 16 бит
Метод сжатия : С потерями
Размер потока : 291 Мбайт (8%)
Язык : English
Default : Нет
Forced : Нет
Текст #1
Идентификатор : 4
Формат : UTF-8
Идентификатор кодека : S_TEXT/UTF8
Идентификатор кодека/Информация : UTF-8 Plain Text
Язык : English
Default : Нет
Forced : Нет
Текст #2
Идентификатор : 5
Формат : UTF-8
Идентификатор кодека : S_TEXT/UTF8
Идентификатор кодека/Информация : UTF-8 Plain Text
Язык : Spanish
Default : Нет
Forced : Нет
Текст #3
Идентификатор : 6
Формат : UTF-8
Идентификатор кодека : S_TEXT/UTF8
Идентификатор кодека/Информация : UTF-8 Plain Text
Язык : Portuguese
Default : Нет
Forced : Нет
Текст #4
Идентификатор : 7
Формат : UTF-8
Идентификатор кодека : S_TEXT/UTF8
Идентификатор кодека/Информация : UTF-8 Plain Text
Язык : German
Default : Нет
Forced : Нет
Текст #5
Идентификатор : 8
Формат : UTF-8
Идентификатор кодека : S_TEXT/UTF8
Идентификатор кодека/Информация : UTF-8 Plain Text
Язык : Dutch
Default : Нет
Forced : Нет
Меню
00:00:00.000 : en:1
00:05:44.000 : en:2
00:12:01.000 : en:3
00:18:10.000 : en:4
00:23:37.000 : en:5
00:31:18.000 : en:6
00:40:25.000 : en:7
00:48:46.000 : en:8
00:57:27.000 : en:9
01:06:18.000 : en:10
01:13:06.000 : en:11
01:21:52.000 : en:12
01:27:06.000 : en:13
01:35:20.000 : en:14
01:38:54.000 : en:15

Скриншоты

Создавать темы 09-Май-2014 12:36

[Профиль]  [ЛС] 

Топик был перенесен из форума HD в форум HD-AVC
ziyod

Создавать темы 09-Май-2014 13:46

 
Показать сообщения:    
Ответить на тему

Текущее время: 19-Авг 05:02

Часовой пояс: UTC + 5



Вы не можете начинать темы
Вы не можете отвечать на сообщения
Вы не можете редактировать свои сообщения
Вы не можете удалять свои сообщения
Вы не можете голосовать в опросах
Вы не можете прикреплять файлы к сообщениям
Вы не можете скачивать файлы