Обломки прошлого (Катастрофа) / Blue Ruin (Дэвид Гордон Грин / David Gordon Green) [2013, США, Криминал, драма WEB-DL 720p] ПД + Original Eng + Sub eng

Ответить на тему
 

yusuf.0088 ®

Стаж: 3 года 11 месяцев

Сообщений: 116

Симпатии: 69

Обломки прошлого (Катастрофа) / Blue Ruin«Revenge comes home»-- Год выпуска: 2013
Страна: США
Жанр: Триллер
Продолжительность: 01:30:00--Перевод: Любительский одноголосый (Xixidok)
Оригинальная аудиодорожка: нет
Cубтитры: нет--Режиссер: Джереми Солнье / Jeremy Saulnier--В ролях: Макон Блэр, Девин Рэтрей, Эми Харгривз, Кевин Колак, Ив Пламб, Дэвид В. Томпсон, Стэйси Рок, Сидне Андерсон, Бонни Джонсон--Описание:
Спокойная жизнь таинственного затворника переворачивается с ног на голову, когда он возвращается туда, где провел детство, желая отомстить. Он ввязывается в жестокую борьбу, чтобы защитить свою семью…-- --Качество: WEB-DL (720p)
Контейнер: MKV
Аудио кодек: AC3--Видео: [email protected] / 1280x536 / 23.976 fps / 3352 kbps
Аудио: Русский / MP3 2ch / 48 KHz / 192 kbps |ЛО|--

MediaInfo

Формат : Matroska
Версия формата : Version 1
Размер файла : 2,24 Гбайт
Продолжительность : 1 ч. 30 м.
Общий поток : 3538 Кбит/сек
Дата кодирования : UTC 2014-05-08 10:09:42
Программа кодирования : mkvmerge v2.3.0 ('Freak U') built on Sep 8 2008 18:32:16
Библиотека кодирования : libebml v0.7.7 + libmatroska v0.8.1
Видео
Идентификатор : 1
Формат : AVC
Формат/Информация : Advanced Video Codec
Профиль формата : [email protected]
Параметр CABAC формата : Да
Параметр ReFrames формата : 4 кадра
Идентификатор кодека : V_MPEG4/ISO/AVC
Продолжительность : 1 ч. 30 м.
Битрейт : 3352 Кбит/сек
Ширина : 1280 пикселей
Высота : 536 пикселей
Соотношение сторон : 2,40:1
Режим частоты кадров : Постоянный
Частота кадров : 23,976 кадра/сек
Цветовое пространство : YUV
Субдискретизация насыщенности : 4:2:0
Битовая глубина : 8 бит
Тип развёртки : Прогрессивная
Бит/(Пиксели*Кадры) : 0.204
Размер потока : 2,07 Гбайт (93%)
Библиотека кодирования : x264 core 142 r2409 d6b4e63
Настройки программы : cabac=1 / ref=3 / deblock=1:2:2 / analyse=0x3:0x113 / me=hex / subme=7 / psy=1 / psy_rd=1.00:0.15 / mixed_ref=1 / me_range=16 / chroma_me=1 / trellis=1 / 8x8dct=1 / cqm=0 / deadzone=21,11 / fast_pskip=1 / chroma_qp_offset=-3 / threads=6 / lookahead_threads=1 / sliced_threads=0 / nr=0 / decimate=1 / interlaced=0 / bluray_compat=0 / constrained_intra=0 / bframes=3 / b_pyramid=2 / b_adapt=1 / b_bias=0 / direct=1 / weightb=1 / open_gop=0 / weightp=2 / keyint=240 / keyint_min=23 / scenecut=40 / intra_refresh=0 / rc_lookahead=40 / rc=2pass / mbtree=1 / bitrate=3352 / ratetol=1.0 / qcomp=0.60 / qpmin=0 / qpmax=69 / qpstep=4 / cplxblur=20.0 / qblur=0.5 / ip_ratio=1.40 / aq=1:1.00
Язык : English
Default : Да
Forced : Нет
Аудио
Идентификатор : 2
Формат : MPEG Audio
Версия формата : Version 1
Профиль формата : Layer 3
Идентификатор кодека : A_MPEG/L3
Идентификатор кодека/Подсказка : MP3
Продолжительность : 1 ч. 30 м.
Вид битрейта : Постоянный
Битрейт : 192 Кбит/сек
Каналы : 2 канала
Частота : 44,1 КГц
Метод сжатия : С потерями
Размер потока : 125 Мбайт (5%)
Default : Да
Forced : Нет

Скриншоты

Создавать темы 09-Май-2014 12:42

[Профиль]  [ЛС] 

Топик был перенесен из форума HD в форум HD-AVC
ziyod

Создавать темы 09-Май-2014 13:47

 

madd

Стаж: 6 лет 5 месяцев

Сообщений: 25

Симпатии: 13

Медведев что ли? LOL

Создавать темы 10-Май-2014 03:06

[Профиль]  [ЛС] 

outoforder

Стаж: 4 года 10 месяцев

Сообщений: 812

Симпатии: 172

826346Медведев что ли? LOL
Похож малость.
А в чем смысл фильма я не допер. tg

Создавать темы 14-Май-2014 21:28

[Профиль]  [ЛС] 
Показать сообщения:    
Ответить на тему

Текущее время: 21-Сен 17:20

Часовой пояс: UTC + 5



Вы не можете начинать темы
Вы не можете отвечать на сообщения
Вы не можете редактировать свои сообщения
Вы не можете удалять свои сообщения
Вы не можете голосовать в опросах
Вы не можете прикреплять файлы к сообщениям
Вы не можете скачивать файлы