Секретный эксперимент / The Banshee Chapter (Блэр Эриксон / Blair Erickson) [2013, США, Германия, Триллер, ужасы, HDRip] Dub [лицензия]

Ответить на тему
 

yusuf.0088 ®

Стаж: 4 года 2 месяца

Сообщений: 116

Симпатии: 69

Секретный эксперимент / The Banshee Chapter
«Расширь своё сознание»-- Год выпуска: 2013
Страна: Германия, США
Жанр: Триллер, ужасы
Продолжительность: 01:27:08--Перевод: Профессиональный дублированный [лицензия]
Оригинальная аудиодорожка: нет
Cубтитры: нет--Режиссер: Блэр Эриксон / Blair Erickson--В ролях: Катя Винтер, Тед Левайн, Майкл МакМиллиан, Моник Канделария, Чед Брамметт, Дженни Гэбриэлль, Дж.Д. Гарфилд, Алекс Джианопулос, Дэвид Мидфандер, Вивиан Несбитт--Описание:
Любой репортер, профессия которого является настоящим призванием, может докопаться до сенсационного материала, основываясь при этом только на собственные чувства. И вот таким репортером и является героиня, которая была против того, чтобы ее верный приятель участвовал в эксперименте правительства. А через некоторое время приятель бесследно исчез, что заставило героиню начать заниматься его поисками. И героиня точно знает о том, что если доберется до правды, то получит невероятную сенсацию, от которой общество просто взорвется. Но героиня также прекрасно знает, что с ней может приключиться беда…-- --Качество: WEB-DLRip
Контейнер: AVI
Аудио кодек: AC3--Видео: XVID, / 720x400 / 23,976 fps / 1853 kbps
Аудио: Русский / AC3 6ch / 48 KHz / 384 kbps |Дубляж|

MediaInfo

Формат : AVI
Формат/Информация : Audio Video Interleave
Размер файла : 1,37 Гбайт
Продолжительность : 1 ч. 27 м.
Общий поток : 2246 Кбит/сек
Программа кодирования : VirtualDubMod 1.5.10.3 | www.virtualdub-fr.org || (build 2550/release)
Библиотека кодирования : VirtualDubMod build 2550/release
Видео
Идентификатор : 0
Формат : MPEG-4 Visual
Профиль формата : Advanced [email protected]
Параметр BVOP формата : 2
Параметр QPel формата : Нет
Параметр GMC формата : Без точки перехода
Параметр матрицы формата : Выборочная
Идентификатор кодека : XVID
Идентификатор кодека/Подсказка : XviD
Продолжительность : 1 ч. 27 м.
Битрейт : 1853 Кбит/сек
Ширина : 720 пикселей
Высота : 400 пикселей
Соотношение сторон : 16:9
Частота кадров : 23,976 кадра/сек
Цветовое пространство : YUV
Субдискретизация насыщенности : 4:2:0
Битовая глубина : 8 бит
Тип развёртки : Прогрессивная
Метод сжатия : С потерями
Бит/(Пиксели*Кадры) : 0.268
Размер потока : 1,13 Гбайт (82%)
Библиотека кодирования : XviD 1.2.1 (UTC 2008-12-04)
Аудио
Идентификатор : 1
Формат : AC-3
Формат/Информация : Audio Coding 3
Расширение режима : CM (complete main)
Параметр Endianness формата : Big
Идентификатор кодека : 2000
Продолжительность : 1 ч. 27 м.
Вид битрейта : Постоянный
Битрейт : 384 Кбит/сек
Каналы : 6 каналов
Расположение каналов : Front: L C R, Side: L R, LFE
Частота : 48,0 КГц
Битовая глубина : 16 бит
Метод сжатия : С потерями
Размер потока : 239 Мбайт (17%)
Выравнивание : Разделение по промежуткам
Продолжительность промежутка : 42 мс. (1,00 видеокадр)
Время предзагрузки промежутка : 500 мс.

Скриншоты

Создавать темы 09-Май-2014 12:45

[Профиль]  [ЛС] 

trololo333

Стаж: 5 лет 9 месяцев

Сообщений: 14

Симпатии: 1

Капец, как на Путина похож)) а кинока г----о может нарикам будет по душе эта картина

Создавать темы 14-Май-2014 03:40

[Профиль]  [ЛС] 
Показать сообщения:    
Ответить на тему

Текущее время: 12-Дек 11:31

Часовой пояс: UTC + 5



Вы не можете начинать темы
Вы не можете отвечать на сообщения
Вы не можете редактировать свои сообщения
Вы не можете удалять свои сообщения
Вы не можете голосовать в опросах
Вы не можете прикреплять файлы к сообщениям
Вы не можете скачивать файлы