Несвятые (В бегах) / Ain't Them Bodies Saints (Дэвид Лоури / David Lowery) [2013, США, Драма, мелодрама, криминал, BDRip] ПМ [лицензия]

Ответить на тему
 

yusuf.0088 ®

Стаж: 3 года 11 месяцев

Сообщений: 116

Симпатии: 69

Несвятые (В бегах) / Ain't Them Bodies Saints
-- Год выпуска: 2013
Страна: США
Жанр: Драма, мелодрама, криминал
Продолжительность: 01:36:00--Перевод: Профессиональный многоголосый [лицензия]
Оригинальная аудиодорожка: нет
Cубтитры: нет--Режиссер: Дэвид Лоури / David Lowery--В ролях: Кейси Аффлек, Руни Мара, Бен Фостер, Кит Кэрредин, Кеннади Смит, Джеклинн Смит, Нэйт Паркер, Роберт Лонгстрит, Чарльз Бэйкер, Августин Фриззелл--Описание:
Драматическое кино с оригинальным названием – Ain’t Them Bodies Saints, поведает судьбу Техаса в 1970-х годах. Речь пойдет о трех молодых людях, которые оказываются втянутыми в неприятную историю, в результате чего они отбиваются от копов, ранят одного из них. В итоге их окружают и берут живыми, всю вину за действия банды берет ее главарь – Боб Малдун, также он приписывает себе тот смертельный выстрел, который нанесла его девушка – Рут. Боба отправляют в тюрьму, где он будет пребывать много лет, а в это время у него рождается дочь, которую Рут называет именем Сильвия. Чтобы быть с дочерью и быть свидетелем того, как ребенок растет, герой совершает одну за другой попытку бегства, но все они заканчиваются провалом. Поворачивает лицом удача только по стечению четвертого года пребывания в тюрьме. Герой запутывает следы, якобы он убежал далеко и ни как не к своей дочери. Но один человек уверен в обратном – Патрик Смоллс знает, что появление Малдуна стоит ожидать здесь, в Техасе, где живет его девушка и дочь.-- --Качество: BDRip
Контейнер: MKV
Аудио кодек: AC3--Видео MPEG-4 AVC / 720x304 / 23,976 fps / 1653 kbps
Аудио: Русский / AC3 6ch / 48 KHz / 384 kbps |ПМ|

MediaInfo

Формат : Matroska
Версия формата : Version 4 / Version 2
Размер файла : 1,37 Гбайт
Продолжительность : 1 ч. 36 м.
Общий поток : 2039 Кбит/сек
Дата кодирования : UTC 2014-05-08 04:12:07
Программа кодирования : mkvmerge v6.5.0 ('Isn't she lovely') built on Oct 20 2013 12:50:05
Библиотека кодирования : libebml v1.3.0 + libmatroska v1.4.1
Видео
Идентификатор : 1
Формат : AVC
Формат/Информация : Advanced Video Codec
Профиль формата : [email protected]
Параметр CABAC формата : Да
Параметр ReFrames формата : 12 кадров
Идентификатор кодека : V_MPEG4/ISO/AVC
Продолжительность : 1 ч. 36 м.
Битрейт : 1653 Кбит/сек
Ширина : 720 пикселей
Высота : 304 пикселя
Соотношение сторон : 2,35:1
Режим частоты кадров : Постоянный
Частота кадров : 23,976 кадра/сек
Цветовое пространство : YUV
Субдискретизация насыщенности : 4:2:0
Битовая глубина : 8 бит
Тип развёртки : Прогрессивная
Бит/(Пиксели*Кадры) : 0.315
Размер потока : 1,08 Гбайт (79%)
Библиотека кодирования : x264 core 138 r2358 9e941d1
Настройки программы : cabac=1 / ref=12 / deblock=1:-3:-3 / analyse=0x3:0x133 / me=umh / subme=7 / psy=1 / psy_rd=1.00:0.15 / mixed_ref=1 / me_range=32 / chroma_me=1 / trellis=1 / 8x8dct=1 / cqm=0 / deadzone=21,11 / fast_pskip=1 / chroma_qp_offset=-3 / threads=12 / lookahead_threads=2 / sliced_threads=0 / nr=0 / decimate=1 / interlaced=0 / bluray_compat=0 / constrained_intra=0 / bframes=7 / b_pyramid=2 / b_adapt=1 / b_bias=0 / direct=1 / weightb=1 / open_gop=0 / weightp=2 / keyint=240 / keyint_min=23 / scenecut=40 / intra_refresh=0 / rc_lookahead=40 / rc=2pass / mbtree=1 / bitrate=1653 / ratetol=1.0 / qcomp=0.60 / qpmin=0 / qpmax=69 / qpstep=4 / cplxblur=20.0 / qblur=0.5 / vbv_maxrate=62500 / vbv_bufsize=78125 / nal_hrd=none / ip_ratio=1.40 / aq=1:1.00
Язык : English
Default : Да
Forced : Нет
Аудио
Идентификатор : 2
Формат : AC-3
Формат/Информация : Audio Coding 3
Расширение режима : CM (complete main)
Параметр Endianness формата : Big
Идентификатор кодека : A_AC3
Продолжительность : 1 ч. 36 м.
Вид битрейта : Постоянный
Битрейт : 384 Кбит/сек
Каналы : 6 каналов
Расположение каналов : Front: L C R, Side: L R, LFE
Частота : 48,0 КГц
Битовая глубина : 16 бит
Метод сжатия : С потерями
Размер потока : 264 Мбайт (19%)
Язык : Russian
Default : Да
Forced : Нет

Скриншоты

Создавать темы 09-Май-2014 12:49

[Профиль]  [ЛС] 

Топик был перенесен из форума Фильмы за 2014 (новинки) в форум Фильмы за 2013
ziyod

Создавать темы 09-Май-2014 13:51

 
Показать сообщения:    
Ответить на тему

Текущее время: 23-Сен 21:33

Часовой пояс: UTC + 5



Вы не можете начинать темы
Вы не можете отвечать на сообщения
Вы не можете редактировать свои сообщения
Вы не можете удалять свои сообщения
Вы не можете голосовать в опросах
Вы не можете прикреплять файлы к сообщениям
Вы не можете скачивать файлы