Токарев / Tokarev (Пако Кабесас) [2014 г., Боевик, Криминал, Триллер, BDRip-AVC]

Ответить на тему
 

Nosferatu ®

Стаж: 4 года 7 месяцев

Сообщений: 79

Симпатии: 5

Токарев / Tokarev- -
Год выпуска: 2014
Страна: США, Франция
Жанр: Боевик, Криминал, Триллер
Продолжительность: 01:38:27
Перевод: Профессиональный двухголосый [Пиратская студия]-Режиссер: Пако Кабесас-В ролях:
Майкл МакГрэйди, Макс Райан, Николас Кейдж, Петер Стормаре, Рэйчел Николс, Павел Личникофф, Патрис Колс, Макс Фаулер, Обри Пиплз, Джек Фалахи-Описание:
Пол Магуаер — бывший гангстер, а теперь добропорядочный бизнесмен и примерный семьянин. Но когда его дочь похищают, он вынужден поднять свои старые связи и снова вернуться на скользкую дорожку…-Доп. информация:
Бюджет: $25 000 000
Рейтинг КиноПоиск.Ru: 5.313 (615)
Рейтинг IMDb: 5.1 (1546)-Качество: BDRip-AVC
Формат: MKV
Видео кодек: H.264
Аудио кодек: AC3
Видео: MPEG4 Video (H264) 1280x544 23.976fps 4 835 Kbps
Аудио: Dolby AC3 48000Hz 6ch 448kbps

M/I

Format : Matroska
Format version : Version 4 / Version 2
File size : 3.63 GiB
Duration : 1h 38mn
Overall bit rate : 5 283 Kbps
Movie name : Release Group CINEMANIA
Encoded date : UTC 2014-05-04 19:47:29
Writing application : mkvmerge v6.1.0 ('Old Devil') built on Mar 2 2013 14:32:37
Writing library : libebml v1.3.0 + libmatroska v1.4.0
Video
ID : 1
Format : AVC
Format/Info : Advanced Video Codec
Format profile : [email protected]
Format settings, CABAC : Yes
Format settings, ReFrames : 5 frames
Codec ID : V_MPEG4/ISO/AVC
Duration : 1h 38mn
Bit rate : 4 835 Kbps
Width : 1 280 pixels
Height : 544 pixels
Display aspect ratio : 2.35:1
Frame rate mode : Constant
Frame rate : 23.976 fps
Color space : YUV
Chroma subsampling : 4:2:0
Bit depth : 8 bits
Scan type : Progressive
Bits/(Pixel*Frame) : 0.290
Stream size : 3.25 GiB (90%)
Title : Release Group CINEMANIA
Writing library : x264 core 142 r2431 ac76440
Encoding settings : cabac=1 / ref=5 / deblock=1:-1:-1 / analyse=0x3:0x133 / me=umh / subme=8 / psy=1 / psy_rd=1.00:0.15 / mixed_ref=1 / me_range=16 / chroma_me=1 / trellis=1 / 8x8dct=1 / cqm=0 / deadzone=21,11 / fast_pskip=0 / chroma_qp_offset=-4 / threads=18 / lookahead_threads=3 / sliced_threads=0 / nr=0 / decimate=1 / interlaced=0 / bluray_compat=0 / constrained_intra=0 / bframes=3 / b_pyramid=2 / b_adapt=2 / b_bias=0 / direct=3 / weightb=1 / open_gop=0 / weightp=2 / keyint=240 / keyint_min=23 / scenecut=40 / intra_refresh=0 / rc_lookahead=50 / rc=2pass / mbtree=1 / bitrate=4835 / ratetol=1.0 / qcomp=0.60 / qpmin=10 / qpmax=69 / qpstep=4 / cplxblur=20.0 / qblur=0.5 / ip_ratio=1.40 / aq=1:1.00
Default : Yes
Forced : No
Audio
ID : 2
Format : AC-3
Format/Info : Audio Coding 3
Mode extension : CM (complete main)
Format settings, Endianness : Big
Codec ID : A_AC3
Duration : 1h 38mn
Bit rate mode : Constant
Bit rate : 448 Kbps
Channel count : 6 channels
Channel positions : Front: L C R, Side: L R, LFE
Sampling rate : 48.0 KHz
Bit depth : 16 bits
Compression mode : Lossy
Stream size : 316 MiB (8%)
Default : Yes
Forced : No
Text #1
ID : 3
Format : UTF-8
Codec ID : S_TEXT/UTF8
Codec ID/Info : UTF-8 Plain Text
Title : Enigma
Language : Russian
Default : No
Forced : No
Text #2
ID : 4
Format : UTF-8
Codec ID : S_TEXT/UTF8
Codec ID/Info : UTF-8 Plain Text
Language : English
Default : No
Forced : No
Menu
00:00:00.000 : en:00:00:00.000
00:08:35.598 : en:00:08:35.598
00:16:44.295 : en:00:16:44.295
00:24:59.998 : en:00:24:59.998
00:37:21.448 : en:00:37:21.448
00:42:16.200 : en:00:42:16.200
00:48:20.356 : en:00:48:20.356
00:55:27.032 : en:00:55:27.032
01:07:48.731 : en:01:07:48.731
01:13:20.146 : en:01:13:20.146
01:19:58.711 : en:01:19:58.711
01:27:23.071 : en:01:27:23.071

Скриншоты





Создавать темы 09-Май-2014 13:51

[Профиль]  [ЛС] 

Топик был перенесен из форума Фильмы за 2014 (новинки) в форум HD-AVC
ziyod

Создавать темы 09-Май-2014 13:54

 

Mercuriy

Стаж: 5 лет 11 месяцев

Сообщений: 418

Симпатии: 100

Nosferatu, Спасибо, за хороший контент и по содержанию и по качеству, за дружную раздачу) из уважения к труду и щедрости остаюсь на раздаче по мере возможности.
Был непротив перекачать в 1080р для восприятия картинки в огромном колличестве размера. а если к тому времени и лицензионный дубляж будет (толькобы не от тунца) с сильным битрейтом то наверное будет райское счастье)))

Создавать темы 14-Май-2014 10:03

[Профиль]  [ЛС] 

eldor_84

Стаж: 5 лет 2 месяца

Сообщений: 29

Симпатии: 1

откуда этот релиз?? в рутреккере нет такого релиза. там все релизы с любительской озвучкой.

Создавать темы 08-Июн-2014 14:45

[Профиль]  [ЛС] 
Показать сообщения:    
Ответить на тему

Текущее время: 22-Окт 02:01

Часовой пояс: UTC + 5



Вы не можете начинать темы
Вы не можете отвечать на сообщения
Вы не можете редактировать свои сообщения
Вы не можете удалять свои сообщения
Вы не можете голосовать в опросах
Вы не можете прикреплять файлы к сообщениям
Вы не можете скачивать файлы