Привычка расставаться (Екатерина Телегина) [2013, Комедия, мелодрама, WEB-DLRip]

Ответить на тему
 

Каротажник ®

Стаж: 3 года 11 месяцев

Сообщений: 195

Симпатии: 211

Привычка расставаться

Год выпуска: 2013
Страна: Россия
Жанр: Комедия, мелодрама
Продолжительность: 01:19:26
Перевод: Не требуется

Режиссёр: Екатерина Телегина
В ролях: Алёна Константинова, Данила Козловский, Елизавета Боярская, Полина Филоненко, Александра Тюфтей, Александр Петров, Алексей Филимонов, Петр Рыков, Карло Лаванья, Пётр Фёдоров

История о девушке, которая не может устроить свою личную жизнь. В поисках ответа, почему все ее отношения не сложились, она решает встретиться со всеми своими бывшими и спросить у них, что они думают по этому поводу. Найдет ли она ответ на свой вопрос? Нет. Найдет ли она свою любовь? Конечно, да!




Качество: WEB-DLRip
Формат: Avi

Видео: Xvid 720x384 25fps 2183kbps
Аудио: AC3 48000Hz 6ch 448kbps

Media Info

Format : AVI
Format/Info : Audio Video Interleave
File size : 1.46 GiB
Duration : 1h 19mn
Overall bit rate : 2 640 Kbps
Movie name : Привычка расставаться (2013) WEB-DLRip
Genre : Комедия, мелодрама
Recorded date : 08.05.2014
Writing application : VirtualDubMod 1.5.10.3 | www.virtualdub-fr.org || (build 2550/release)
Writing library : VirtualDubMod build 2550/release
Copyright : rip by ivandubskoj
Video
ID : 0
Format : MPEG-4 Visual
Format profile : Advanced [email protected]
Format settings, BVOP : 1
Format settings, QPel : No
Format settings, GMC : No warppoints
Format settings, Matrix : Default (MPEG)
Codec ID : XVID
Codec ID/Hint : XviD
Duration : 1h 19mn
Bit rate : 2 184 Kbps
Width : 720 pixels
Height : 384 pixels
Display aspect ratio : 1.85:1
Frame rate : 25.000 fps
Color space : YUV
Chroma subsampling : 4:2:0
Bit depth : 8 bits
Scan type : Progressive
Compression mode : Lossy
Bits/(Pixel*Frame) : 0.316
Stream size : 1.21 GiB (83%)
Writing library : XviD 73
Audio
ID : 1
Format : AC-3
Format/Info : Audio Coding 3
Mode extension : CM (complete main)
Format settings, Endianness : Big
Codec ID : 2000
Duration : 1h 19mn
Bit rate mode : Constant
Bit rate : 448 Kbps
Channel(s) : 6 channels
Channel positions : Front: L C R, Side: L R, LFE
Sampling rate : 48.0 KHz
Bit depth : 16 bits
Compression mode : Lossy
Stream size : 255 MiB (17%)
Alignment : Split accross interleaves
Interleave, duration : 64 ms (1.60 video frames)
Interleave, preload duration : 500 ms
Title : Russian

Скриншоты


Создавать темы 10-Май-2014 07:23

[Профиль]  [ЛС] 
Показать сообщения:    
Ответить на тему

Текущее время: 23-Сен 09:01

Часовой пояс: UTC + 5



Вы не можете начинать темы
Вы не можете отвечать на сообщения
Вы не можете редактировать свои сообщения
Вы не можете удалять свои сообщения
Вы не можете голосовать в опросах
Вы не можете прикреплять файлы к сообщениям
Вы не можете скачивать файлы