РобоКоп / RoboCop (Жозе Падилья) [2014 г., Фантастика / Боевик / Криминал, BDRip] [Лицензия]

Ответить на тему
 

БЕГИ 1996 ®

Стаж: 4 года 1 месяц

Сообщений: 17

Симпатии: 15

РобоКоп - RoboCop
Год выпуска: 2014
Страна: США
Жанр: Фантастика / Боевик / Криминал
Продолжительность: 01:57:30
Перевод: Профессиональный (Дублированный) (iTunes Russia) [Лицензия]
Режиссер: Жозе Падилья
Сценарий: Джошуа Зитумер, Эдвард Ноймайер, Майкл Майнер
Продюсер: Марк Абрахам, Эрик Ньюман, Гари Барбер
-
Премьера в мире: 30 января 2014
-
Бюджет: $100 000 000
Сборы в США: $58 317 504
Сборы в мире: + $183 449 409 = $241 766 913
Сборы в России: $9 901 976
-
В ролях: Юэль Киннаман, Гари Олдман, Майкл Китон, Эбби Корниш, Джеки Эрл Хейли, Сэмюэл Л. Джексон, Майкл К. Уильямс, Дженнифер Или, Марианн Жан-Батист, Айми Гарсиа
-
Описание: 2028 год. Международный конгломерат ОмниКорп лидирует в производстве робототехники. Благодаря разработкам компании Америка успешно побеждает в войнах по всему миру. Но теперь пришло время применить технологию на американской земле. Алекс Мерфи — любящий муж, отец и отличный полицейский, оберегающий порядок в Детройте, получает на службе смертельные ранения. Специалисты ОмниКорпа, используя новейшие разработки, сохраняют ему жизнь. Алекс возвращается на службу в родной город не только с новыми сверхспособностями, но и с проблемами, с которыми не сталкивался ни один живой человек.
-
Качество: BDRip
Формат: AVC (Advanced Video Codec) SD (576p) M4V
Видео кодек: H264
Аудио кодек: AAC (Advanced Audio Coding)
Видео: H264 1024x432 23.976 fps 2 200 kbps
Аудио #1: AAC 48000 Hz Stereo 156 kbps (Русский / Профессиональный / Дублированный (iTunes Russia) [Лицензия]
Аудио #2: AAC 48000 Hz Stereo 156 kbps (Английский / Оригинальная дорожка)
Субтитр #1: Timed text English
Субтитр #2: Apple text English

iTunes Meta Tags

Sort Name: RoboCop
XID: Apple:vendor_id:2014-416183
contentID: 820509463
Copyright: © 2014 Metro-Goldwyn-Mayer Pictures Inc. and Columbia Pictures Industries, Inc. ROBOCOP TM Orion Pictures Corporation. All Rights Reserved.
Screenwriters: Джошуа Зитумер, Эдвард Ноймайер, Майкл Майнер
Producers: Марк Абрахам, Эрик Ньюман, Гари Барбер
Director: Жозе Падилья
Cast: Юэль Киннаман, Гари Олдман, Майкл Китон, Эбби Корниш, Джеки Эрл Хейли, Сэмюэл Л. Джексон, Майкл К. Уильямс, Дженнифер Или, Марианн Жан-Батист, Айми Гарсиа
Studio: MGM
Rating: 10
Long Description: 2028 год. Международный конгломерат ОмниКорп лидирует в производстве робототехники. Благодаря разработкам компании Америка успешно побеждает в войнах по всему миру. Но теперь пришло время применить технологию на американской земле. Алекс Мерфи - любящий муж, отец и отличный полицейский, оберегающий порядок в Детройте, получает на службе смертельные ранения. Специалисты ОмниКорпа, используя новейшие разработки, сохраняют ему жизнь. Алекс возвращается на службу в родной город не только с новыми сверхспособностями, но и с проблемами, с которыми не сталкивался ни один живой человек.
Description: 2028 год. Международный конгломерат ОмниКорп лидирует в производстве робототехники. Благодаря разработкам компании Америка успешно побеждает в войнах по всему миру. Но теперь пришло время применить технологию на американской земле...
Release Date: 2014-01-30T08:00:00Z
Genre: Action & Adventure
Artist: José Padilha
Name: RoboCop (2014)

Медиа инфо

Video #1
ID : 1
Format : AVC
Format/Info : Advanced Video Codec
Format profile : [email protected]
Format settings, CABAC : Yes
Format settings, ReFrames : 9 frames
Codec ID : avc1
Codec ID/Info : Advanced Video Coding
Duration : 1h 57mn
Bit rate mode : Variable
Bit rate : 2 200 Kbps
Width : 1 024 pixels
Height : 432 pixels
Display aspect ratio : 2.40:1
Frame rate mode : Variable
Frame rate : 23.976 fps
Minimum frame rate : 23.810 fps
Maximum frame rate : 1 698.113 fps
Color space : YUV
Chroma subsampling : 4:2:0
Bit depth : 8 bits
Scan type : Progressive
Bits/(Pixel*Frame) : 0.207
Stream size : 1.80 GiB (87%)
Writing library : x264 core 130 r2273 b3065e6
Encoding settings : cabac=1 / ref=9 / deblock=1:0:0 / analyse=0x3:0x113 / me=umh / subme=9 / psy=1 / psy_rd=1.00:0.00 / mixed_ref=1 / me_range=32 / chroma_me=1 / trellis=1 / 8x8dct=1 / cqm=0 / deadzone=21,11 / fast_pskip=1 / chroma_qp_offset=-2 / threads=12 / lookahead_threads=1 / sliced_threads=0 / nr=0 / decimate=1 / interlaced=0 / bluray_compat=0 / constrained_intra=0 / bframes=6 / b_pyramid=2 / b_adapt=2 / b_bias=0 / direct=1 / weightb=1 / open_gop=0 / weightp=2 / keyint=240 / keyint_min=24 / scenecut=40 / intra_refresh=0 / rc_lookahead=40 / rc=2pass / mbtree=1 / bitrate=2200 / ratetol=1.0 / qcomp=0.60 / qpmin=0 / qpmax=69 / qpstep=4 / cplxblur=20.0 / qblur=0.5 / ip_ratio=1.40 / aq=1:1.00
Language : English
Encoded date : UTC 2014-05-09 08:33:37
Tagged date : UTC 2014-05-09 08:34:36
Color primaries : BT.709-5, BT.1361, IEC 61966-2-4, SMPTE RP177
Transfer characteristics : BT.709-5, BT.1361
Matrix coefficients : BT.709-5, BT.1361, IEC 61966-2-4 709, SMPTE RP177
Video #2
ID : 6
Format : JPEG
Codec ID : jpeg
Duration : 1h 57mn
Bit rate mode : Variable
Bit rate : 1 396 bps
Width : 640 pixels
Height : 270 pixels
Display aspect ratio : 2.40:1
Frame rate mode : Variable
Frame rate : 0.005 fps
Minimum frame rate : 0.002 fps
Maximum frame rate : 0.010 fps
Color space : YUV
Chroma subsampling : 4:2:0
Bit depth : 8 bits
Compression mode : Lossy
Bits/(Pixel*Frame) : 1.616
Stream size : 1.07 MiB (0%)
Language : English
Encoded date : UTC 2014-05-09 08:34:44
Tagged date : UTC 2014-05-09 08:34:44
Audio #1
ID : 2
Format : AAC
Format/Info : Advanced Audio Codec
Format profile : LC
Codec ID : 40
Duration : 1h 57mn
Bit rate mode : Variable
Bit rate : 156 Kbps
Maximum bit rate : 235 Kbps
Channel(s) : 2 channels
Channel positions : Front: L R
Sampling rate : 48.0 KHz
Compression mode : Lossy
Stream size : 131 MiB (6%)
Language : Russian
Encoded date : UTC 2014-05-09 08:33:37
Tagged date : UTC 2014-05-09 08:34:33
Audio #2
ID : 3
Format : AAC
Format/Info : Advanced Audio Codec
Format profile : LC
Codec ID : 40
Duration : 1h 57mn
Bit rate mode : Variable
Bit rate : 156 Kbps
Maximum bit rate : 243 Kbps
Channel(s) : 2 channels
Channel positions : Front: L R
Sampling rate : 48.0 KHz
Compression mode : Lossy
Stream size : 131 MiB (6%)
Language : English
Encoded date : UTC 2014-05-09 08:33:37
Tagged date : UTC 2014-05-09 08:34:33
Text #1
ID : 4
Format : Timed text
Muxing mode : sbtl
Codec ID : tx3g
Duration : 1h 51mn
Bit rate mode : Variable
Bit rate : 81 bps
Stream size : 65.9 KiB (0%)
Language : English
Encoded date : UTC 2014-05-09 08:33:37
Tagged date : UTC 2014-05-09 08:33:37
Text #2
ID : 5
Format : Apple text
Codec ID : text
Duration : 1h 57mn
Bit rate mode : Constant
Bit rate : 1 bps
Stream size : 832 Bytes (0%)
Language : English
Encoded date : UTC 2014-05-09 08:34:36
Tagged date : UTC 2014-05-09 08:34:36
Menu
00:00:00.000 : 00:00:00.000
00:04:33.982 : 00:04:33.899
00:08:51.865 : 00:08:51.740
00:14:33.999 : 00:14:33.915
00:17:01.689 : 00:17:01.604
00:19:27.126 : 00:19:27.041
00:21:53.022 : 00:21:52.937
00:26:13.658 : 00:26:13.572
00:30:48.057 : 00:30:47.971
00:32:48.761 : 00:32:48.675
00:36:12.507 : 00:36:12.379
00:39:07.056 : 00:39:06.970
00:43:03.585 : 00:43:03.498
00:45:40.742 : 00:45:40.655
00:52:10.465 : 00:52:10.377
00:57:21.276 : 00:57:21.188
01:01:24.019 : 01:01:23.889
01:02:59.990 : 01:02:59.901
01:06:06.010 : 01:06:05.920
01:10:30.566 : 01:10:30.476
01:13:26.617 : 01:13:26.527
01:18:24.957 : 01:18:24.867
01:21:56.294 : 01:21:56.203
01:26:05.084 : 01:26:04.993
01:28:06.998 : 01:28:06.907
01:32:03.068 : 01:32:02.976
01:35:53.131 : 01:35:52.956
01:38:30.747 : 01:38:30.655
01:41:30.844 : 01:41:30.751
01:43:44.728 : 01:43:44.635
01:46:41.655 : 01:46:41.562
01:50:12.908 : 01:50:12.689

264 Лог

x264 [info]: frame I:1288 Avg QP:13.02 size: 79150 PSNR Mean Y:49.50 U:53.14 V:52.98 Avg:50.37 Global:49.83
x264 [info]: frame P:48456 Avg QP:15.69 size: 22394 PSNR Mean Y:47.60 U:51.29 V:51.15 Avg:48.45 Global:47.83
x264 [info]: frame B:119267 Avg QP:18.23 size: 6297 PSNR Mean Y:46.55 U:51.19 V:50.98 Avg:47.52 Global:46.71
x264 [info]: consecutive B-frames: 5.5% 7.0% 15.5% 35.0% 14.0% 17.6% 5.4%
x264 [info]: mb I I16..4: 10.2% 64.0% 25.8%
x264 [info]: mb P I16..4: 2.2% 9.1% 3.0% P16..4: 33.8% 27.7% 15.9% 0.0% 0.0% skip: 8.4%
x264 [info]: mb B I16..4: 0.2% 0.8% 0.4% B16..8: 40.6% 12.2% 3.2% direct: 4.5% skip:38.1% L0:42.0% L1:46.7% BI:11.3%
x264 [info]: 8x8 transform intra:62.7% inter:67.6%
x264 [info]: coded y,uvDC,uvAC intra: 80.2% 79.8% 53.4% inter: 27.0% 22.8% 3.9%
x264 [info]: i16 v,h,dc,p: 37% 17% 8% 38%
x264 [info]: i8 v,h,dc,ddl,ddr,vr,hd,vl,hu: 11% 11% 6% 9% 13% 12% 13% 11% 14%
x264 [info]: i4 v,h,dc,ddl,ddr,vr,hd,vl,hu: 11% 12% 4% 9% 14% 13% 14% 11% 14%
x264 [info]: i8c dc,h,v,p: 37% 30% 21% 12%
x264 [info]: Weighted P-Frames: Y:2.9% UV:1.6%
x264 [info]: ref P L0: 54.9% 10.0% 14.9% 6.0% 4.3% 3.3% 2.6% 1.9% 1.7% 0.4% 0.0%
x264 [info]: ref B L0: 75.9% 11.4% 5.6% 2.4% 2.1% 1.4% 0.8% 0.4%
x264 [info]: ref B L1: 92.1% 7.9%
x264 [info]: SSIM Mean Y:0.9886992 (19.469db)
x264 [info]: PSNR Mean Y:46.871 U:51.234 V:51.045 Avg:47.809 Global:47.019 kb/s:2199.53

Скриншоты






Последний раз редактировалось: БЕГИ 1996 (2014-05-11 01:23), всего редактировалось 1 раз

Создавать темы 10-Май-2014 12:56

[Профиль]  [ЛС] 

Juravle_93

Стаж: 4 года 6 месяцев

Сообщений: 87

Симпатии: 7

Спасибо

Создавать темы 10-Май-2014 14:06

[Профиль]  [ЛС] 

PREHOOK

Стаж: 4 года 2 месяца

Сообщений: 49

Симпатии: 8

Чет фильм скучный, или только мне так кажется ?

Создавать темы 10-Май-2014 14:18

[Профиль]  [ЛС] 

DooM

Стаж: 5 лет 10 месяцев

Сообщений: 809

Симпатии: 30

826447Чет фильм скучный, или только мне так кажется ?
Согласен. Нереально скучный. Интересно было последние 15-20 минут, а до всего этого шлак. Надеюсь второй части этого позора не будет....

Создавать темы 10-Май-2014 14:23

[Профиль]  [ЛС] 

Timur_n85

Стаж: 4 года

Сообщений: 7

Спасибо

Создавать темы 10-Май-2014 22:13

[Профиль]  [ЛС] 

Senat

Стаж: 6 лет 6 месяцев

Сообщений: 251

826447Чет фильм скучный, или только мне так кажется ?
фильм мусор

Создавать темы 10-Май-2014 22:39

[Профиль]  [ЛС] 

timawow1

Стаж: 6 лет 8 месяцев

Сообщений: 59

Симпатии: 32

Ремейк не удался... Одним словом ТВ3, но автору спасибо за проделанную работу

Создавать темы 10-Май-2014 23:18

[Профиль]  [ЛС] 

shohruh_0777

Стаж: 6 лет 7 месяцев

Сообщений: 41

Господа, я не согласен с вами!!! На мой взгляд фильм вообще классный. Снят профессионально, и бюджет доказывает это!

Создавать темы 12-Май-2014 08:42

[Профиль]  [ЛС] 

X3JumperRaZ0R

Стаж: 5 лет 1 месяц

Сообщений: 177

Симпатии: 151

Фильм полный ГГ

Создавать темы 12-Май-2014 11:47

[Профиль]  [ЛС] 

atabek99

Стаж: 3 года 8 месяцев

Сообщений: 3

Эй ребята, кто хаить этот фильм (ГГ, скучняк и всё такое) да вы походу уже ЗАЖРАЛИСИ! что можете снять лучше, тогда флаг в руки и вперёд в ГАЛИВУД будем ждать ваших премьер. Вот только у остальных кто ещё фильм не видел, непорте отношение к фильму, своими комментариями.
Фильм очень нечего, несупер конечно нет, той революции что была в 90х он конечно непроизведет. Но для любителей фанатов данного жанра всех оставит довольных.
Качайне, всем рекомендую и приятного просмотра!

Создавать темы 12-Май-2014 13:55

[Профиль]  [ЛС] 

Топик был перенесен из форума Зарубежное кино в форум HD-AVC
Mixer City

Создавать темы 13-Май-2014 18:05

 

Фепузбек

Стаж: 4 года 5 месяцев

Сообщений: 2

Симпатии: 5

СпасЫбА!!!!!

Создавать темы 27-Май-2014 21:45

[Профиль]  [ЛС] 
Показать сообщения:    
Ответить на тему

Текущее время: 16-Авг 18:32

Часовой пояс: UTC + 5



Вы не можете начинать темы
Вы не можете отвечать на сообщения
Вы не можете редактировать свои сообщения
Вы не можете удалять свои сообщения
Вы не можете голосовать в опросах
Вы не можете прикреплять файлы к сообщениям
Вы не можете скачивать файлы