Джейсон Борн: Квадрология / Jason Bourne: Quadrilogy (Даг Лайман; Пол Гринграсс; Тони Гилрой) [2002-2012; Боевик, детектив, триллер; BDRip-AVC]

Страницы :  1, 2, 3  След.

Ответить на тему
 

PIXEL 100 ®

Стаж: 4 года 4 месяца

Сообщений: 49

Симпатии: 8

Джейсон Борн: Квадрология / Jason Bourne: Quadrilogy Год: 2002, 2004, 2007, 2012 г.,Жанр: Боевик, детектив, триллерПродолжительность: 01:58:36 | 01:48:31 | 01:55:13 | 02:15:02Перевод: Профессиональный (полное дублирование)

Идентификация Борна / The Bourne Identity

Идентификация Борна / The Bourne Identity Год: 2002
Страна: США, Германия, Чехия / Universal Pictures, Hypnotic, Stillking Films
Жанр: Боевик, детектив, триллер
Продолжительность: 01:58:36
Перевод: Профессиональный (полное дублирование)
Субтитры: Русские, русские (Forced), русские (комментарии), английские
Режиссер: Даг ЛайманВ ролях: Мэтт Дэймон, Франка Потенте, Крис Купер, Клайв Оуэн, Брайан Кокс, Адевале Акиннуойе-Агбадже, Гэбриел Манн, Уолтон Гоггинс, Джош Хэмилтон, Джулия Стайлз-Слоган: «He was the perfect weapon until he became the target»
Сценарий : Тони Гилрой, Уильям Блейк Херрон, Роберт Ладлэм
Продюсер: Патрик Краули, Ричард Н. Гладштейн, Даг Лайман
Оператор : Оливер Вуд
Композитор: Джон Пауэлл
Художник: Дэн Вейл, Лорен Пирон, Беттина фон ден Штейнен
Монтаж: Заар Клейн
Бюджет: $60 000 000
Маркетинг: $25 000 000
Сборы в США: $121 661 683
Сборы в мире: + $92 372 541 = $214 034 224
Премьера (мир): 6 июня 2002
Премьера (РФ): 10 октября 2002, «Ист-Вест»
Релиз на Blu-Ray: 24 февраля 2009, «Юниверсал Пикчерс Рус»
Релиз на DVD: 7 июля 2011, «Флагман-Трейд»
--О фильме: Команда итальянского рыболовецкого судна находит в водах Средиземного моря тело мужчины. У него два пулевых ранения в спине и имплантированный в бедро микрофильм, помеченный номером швейцарского банка. Когда незнакомец приходит в себя, оказывается, что он не помнит кто он, и что с ним случилось, однако он может говорить на нескольких языках и обладает другими необычными способностями. Получив в Цюрихе деньги с указанного банковского счета, он узнает свое имя Джейсон Борн. Но настоящее это его имя или нет? Пытаясь восстановить свое прошлое, он находит свой адрес в Париже, но вместе с этим понимает, что отслеживается убийцей. Борн уговаривает немецкую студентку Мэри отвезти его в Париж, чтобы выяснить все о своем прошлом и понять, кто хочет его убить…
-Качество: BDRip-AVC [Blu-Ray]
Формат: MKV
Видео: H.264, 1056x448 (2,35:1), 23,976 кадр/сек, 2340 Кбит/сек, 0.206 bit/pixel
Аудио#1: 48 kHz, AC3 Dolby Digital, 3/2 (L,C,R,l,r) + LFE ch, ~384.00 kbps avg | RUS
Аудио#2: 48 kHz, AC3 Dolby Digital, 3/2 (L,C,R,l,r) + LFE ch, ~384.00 kbps avg | ENG--

Media info

Format : Matroska
Format version : Version 2
File size : 2.58 GiB
Duration : 1h 58mn
Overall bit rate : 3 109 Kbps
Movie name : -=POTROKS=-
Encoded date : UTC 2012-04-20 03:36:48
Writing application : mkvmerge v5.5.0 ('Healer') built on Apr 6 2012 21:43:24
Writing library : libebml v1.2.3 + libmatroska v1.3.0
Video
ID : 1
Format : AVC
Format/Info : Advanced Video Codec
Format profile : [email protected]
Format settings, CABAC : Yes
Format settings, ReFrames : 7 frames
Codec ID : V_MPEG4/ISO/AVC
Bit rate : 2 340 Kbps
Width : 1 056 pixels
Height : 448 pixels
Display aspect ratio : 2.35:1
Original display aspect ratio : 2.35:1
Frame rate mode : Variable
Color space : YUV
Chroma subsampling : 4:2:0
Bit depth : 8 bits
Scan type : Progressive
Title : Identifikaciya.Borna.2002.D.BDRip.x264.potroks
Writing library : x264 core 116 r2019M 9cc407d
Encoding settings : cabac=1 / ref=8 / deblock=1:-2:-2 / analyse=0x3:0x133 / me=umh / subme=9 / psy=1 / psy_rd=1.00:0.00 / mixed_ref=1 / me_range=42 / chroma_me=1 / trellis=1 / 8x8dct=1 / cqm=0 / deadzone=21,11 / fast_pskip=0 / chroma_qp_offset=-2 / threads=8 / sliced_threads=0 / nr=0 / decimate=1 / interlaced=0 / bluray_compat=0 / constrained_intra=0 / bframes=8 / b_pyramid=1 / b_adapt=2 / b_bias=0 / direct=3 / weightb=1 / open_gop=0 / weightp=2 / keyint=250 / keyint_min=23 / scenecut=45 / intra_refresh=0 / rc_lookahead=100 / rc=2pass / mbtree=1 / bitrate=2340 / ratetol=1.0 / qcomp=0.60 / qpmin=10 / qpmax=51 / qpstep=4 / cplxblur=20.0 / qblur=0.7 / ip_ratio=1.37 / aq=1:1.20
Language : English
Default : Yes
Forced : No
Audio #1
ID : 2
Format : AC-3
Format/Info : Audio Coding 3
Mode extension : CM (complete main)
Format settings, Endianness : Big
Codec ID : A_AC3
Duration : 1h 58mn
Bit rate mode : Constant
Bit rate : 384 Kbps
Channel(s) : 6 channels
Channel positions : Front: L C R, Side: L R, LFE
Sampling rate : 48.0 KHz
Bit depth : 16 bits
Compression mode : Lossy
Stream size : 326 MiB (12%)
Language : Russian
Default : Yes
Forced : Yes
Audio #2
ID : 3
Format : AC-3
Format/Info : Audio Coding 3
Mode extension : CM (complete main)
Format settings, Endianness : Big
Codec ID : A_AC3
Duration : 1h 58mn
Bit rate mode : Constant
Bit rate : 384 Kbps
Channel(s) : 6 channels
Channel positions : Front: L C R, Side: L R, LFE
Sampling rate : 48.0 KHz
Bit depth : 16 bits
Compression mode : Lossy
Stream size : 326 MiB (12%)
Language : English
Default : No
Forced : No
Text #1
ID : 4
Format : UTF-8
Codec ID : S_TEXT/UTF8
Codec ID/Info : UTF-8 Plain Text
Language : English
Default : No
Forced : No
-

Превосходство Борна / The Bourne Supremacy

Превосходство Борна / The Bourne Supremacy Год: 2004
Страна: США, Германия / Universal Pictures, Ludlum Entertainment, The Kennedy/Marshall Company
Жанр: Боевик, детектив, триллер
Продолжительность: 01:48:31
Перевод: Профессиональный (полное дублирование)
Субтитры: Русские, русские (Forced), русские (комментарии), английские
Режиссер: Пол ГринграссВ ролях: Мэтт Дэймон, Франка Потенте, Брайан Кокс, Джулия Стайлз, Карл Урбан, Гэбриел Манн, Джоан Аллен, Мартон Чокаш, Том Гэллоп, Джон Бедфорд Ллойд-Слоган: «Они украли у него жизнь. Он хочет ее вернуть»
Сценарий : Тони Гилрой, Роберт Ладлэм
Продюсер: ППатрик Краули, Фрэнк Маршалл, Пол Сандберг
Оператор : Оливер Вуд
Композитор: Джон Пауэлл
Художник: Доминик Уоткинс, Филип Элтон, Сара Хортон
Монтаж: Ричард Пирсон, Кристофер Раус
Бюджет: $75 000 000
Маркетинг: $35 000 000
Сборы в США: $176 241 941
Сборы в мире: + $112 258 274 = $288 500 215
Премьера (мир): 15 июля 2004
Премьера (РФ): 2 сентября 2004, «UIP»
Релиз на Blu-Ray: 24 февраля 2009, «Юниверсал Пикчерс Рус»
Релиз на DVD: 14 июля 2011, «Флагман-Трейд»
--О фильме: Суперагент ЦРУ Джейсон Борн вновь оказывается подставленным и вынужден помимо возложенной на него задачи государственного значения спасать себя, а заодно и других небезразличных ему людей.
В процессе выполнения миссии судьба заносит Борна в Россию, где его ждет множество характерных для страны, но непривычных западному человеку сюрпризов.
-Качество: BDRip-AVC [Blu-Ray]
Формат: MKV
Видео: H.264, 1056x448 (2,35:1), 23,976 кадр/сек, 2630 Кбит/сек, 0.232 bit/pixel
Аудио#1: 48 kHz, AC3 Dolby Digital, 3/2 (L,C,R,l,r) + LFE ch, ~384.00 kbps avg | RUS
Аудио#2: 48 kHz, AC3 Dolby Digital, 3/2 (L,C,R,l,r) + LFE ch, ~384.00 kbps avg | ENG

Media info

Format : Matroska
Format version : Version 2
File size : 2.58 GiB
Duration : 1h 48mn
Overall bit rate : 3 399 Kbps
Movie name : -=POTROKS=-
Encoded date : UTC 2012-04-23 16:15:50
Writing application : mkvmerge v5.5.0 ('Healer') built on Apr 6 2012 21:43:24
Writing library : libebml v1.2.3 + libmatroska v1.3.0
Video
ID : 1
Format : AVC
Format/Info : Advanced Video Codec
Format profile : [email protected]
Format settings, CABAC : Yes
Format settings, ReFrames : 9 frames
Codec ID : V_MPEG4/ISO/AVC
Bit rate : 2 630 Kbps
Width : 1 056 pixels
Height : 448 pixels
Display aspect ratio : 2.35:1
Frame rate mode : Variable
Color space : YUV
Chroma subsampling : 4:2:0
Bit depth : 8 bits
Scan type : Progressive
Title : Prevoshodstvo.Borna.2004.D.BDRip.x264.potroks
Writing library : x264 core 116 r2019M 9cc407d
Encoding settings : cabac=1 / ref=10 / deblock=1:-2:-1 / analyse=0x3:0x133 / me=umh / subme=9 / psy=1 / psy_rd=1.00:0.00 / mixed_ref=1 / me_range=32 / chroma_me=1 / trellis=1 / 8x8dct=1 / cqm=0 / deadzone=21,11 / fast_pskip=0 / chroma_qp_offset=-2 / threads=8 / sliced_threads=0 / nr=0 / decimate=1 / interlaced=0 / bluray_compat=0 / constrained_intra=0 / bframes=8 / b_pyramid=1 / b_adapt=2 / b_bias=0 / direct=3 / weightb=1 / open_gop=0 / weightp=2 / keyint=250 / keyint_min=23 / scenecut=45 / intra_refresh=0 / rc_lookahead=80 / rc=2pass / mbtree=1 / bitrate=2630 / ratetol=1.0 / qcomp=0.60 / qpmin=10 / qpmax=51 / qpstep=4 / cplxblur=20.0 / qblur=0.7 / ip_ratio=1.37 / aq=1:1.20
Language : English
Default : Yes
Forced : No
Audio #1
ID : 2
Format : AC-3
Format/Info : Audio Coding 3
Mode extension : CM (complete main)
Format settings, Endianness : Big
Codec ID : A_AC3
Duration : 1h 48mn
Bit rate mode : Constant
Bit rate : 384 Kbps
Channel(s) : 6 channels
Channel positions : Front: L C R, Side: L R, LFE
Sampling rate : 48.0 KHz
Bit depth : 16 bits
Compression mode : Lossy
Stream size : 298 MiB (11%)
Title : Dub AC3, 5.1 ch., 384 kbps
Language : Russian
Default : Yes
Forced : Yes
Audio #2
ID : 3
Format : AC-3
Format/Info : Audio Coding 3
Mode extension : CM (complete main)
Format settings, Endianness : Big
Codec ID : A_AC3
Duration : 1h 48mn
Bit rate mode : Constant
Bit rate : 384 Kbps
Channel(s) : 6 channels
Channel positions : Front: L C R, Side: L R, LFE
Sampling rate : 48.0 KHz
Bit depth : 16 bits
Compression mode : Lossy
Stream size : 298 MiB (11%)
Title : Original AC3, 5.1 ch., 384 kbps
Language : English
Default : No
Forced : No
Text #1
ID : 4
Format : UTF-8
Codec ID : S_TEXT/UTF8
Codec ID/Info : UTF-8 Plain Text
Language : English
Default : No
Forced : No
Text #2
ID : 5
Format : UTF-8
Codec ID : S_TEXT/UTF8
Codec ID/Info : UTF-8 Plain Text
Title : Com.
Language : Russian
Default : No
Forced : No
Text #3
ID : 6
Format : UTF-8
Codec ID : S_TEXT/UTF8
Codec ID/Info : UTF-8 Plain Text
Title : Forced
Language : Russian
Default : Yes
Forced : Yes
Text #4
ID : 7
Format : UTF-8
Codec ID : S_TEXT/UTF8
Codec ID/Info : UTF-8 Plain Text
Language : Russian
Default : No
Forced : No
-

Ультиматум Борна / The Bourne Ultimatum

Ультиматум Борна / The Bourne Ultimatum Год: 2007
Страна: США, Германия / Universal Pictures, Angel Studios, Bourne Again
Жанр: Боевик, детектив, триллер
Продолжительность: 01:58:36
Перевод: Профессиональный (полное дублирование)
Субтитры: Русские, русские (Forced), русские (комментарии), английские
Режиссер: Пол ГринграссВ ролях: Мэтт Дэймон, Джулия Стайлз, Дэвид Стрэтэйрн, Скотт Гленн, Пэдди Консидайн, Эдгар Рамирез, Альберт Финни, Джоан Аллен, Том Гэллоп, Кори Джонсон, Даниэль Брюль, Джои Анса-Слоган: «Вспомнить все. Не прощать ничего»
Сценарий : Тони Гилрой, Скотт З. Барнс, Джордж Нолфи
Продюсер: Патрик Краули, Фрэнк Маршалл, Пол Сандберг
Оператор : Оливер Вуд
Композитор: Джон Пауэлл
Художник: Питер Венхам, Роберт Каупер, Алан Гилмор
Монтаж: Кристофер Раус
Бюджет: $110 000 000
Маркетинг: $227 471 070
Сборы в США: $121 661 683
Сборы в мире: + $215 353 068 = $442 824 138
Сборы в России: $5 508 454
DVD в США: $117 271 173
Премьера (мир): 25 июля 2007
Премьера (РФ): 23 августа 2007, «UPI»
Релиз на Blu-Ray: 24 февраля 2009, «Юниверсал Пикчерс Рус»
Релиз на DVD: 10 марта 2011, «ВС трейд»
--О фильме: Он хотел одного - исчезнуть. Вместо этого за Борном теперь охотятся люди, которые сделали его таким, какой он есть. Он потерял память и человека, которого он любил. Но его не удается сдержать даже новому поколению профессиональных убийц. У него только одна цель: вернуться к началу и узнать кем он был, Джейсон Борн.
Он мечется от Москвы к Парижу, через Мадрид и Лондон в Танжер и Нью-Йорк, пытаясь раскрыть последние загадки своего прошлого, в то время как правительственные агенты и Интерпол пытаются помешать ему восстановить всю картину до конца.
-Качество: BDRip-AVC [Blu-Ray]
Формат: MKV
Видео: H.264, 1056x440 (2,40:1), 23,976 кадр/сек, 2432 Кбит/сек, 0.218 bit/pixel
Аудио#1: 48 kHz, AC3 Dolby Digital, 3/2 (L,C,R,l,r) + LFE ch, ~384.00 kbps avg | RUS
Аудио#2: 48 kHz, AC3 Dolby Digital, 3/2 (L,C,R,l,r) + LFE ch, ~384.00 kbps avg | ENG-

Media info

Format : Matroska
Format version : Version 2
File size : 2.58 GiB
Duration : 1h 55mn
Overall bit rate : 3 200 Kbps
Movie name : -=POTROKS=-
Encoded date : UTC 2012-04-24 04:07:35
Writing application : mkvmerge v5.5.0 ('Healer') built on Apr 6 2012 21:43:24
Writing library : libebml v1.2.3 + libmatroska v1.3.0
Video
ID : 1
Format : AVC
Format/Info : Advanced Video Codec
Format profile : [email protected]
Format settings, CABAC : Yes
Format settings, ReFrames : 11 frames
Codec ID : V_MPEG4/ISO/AVC
Duration : 1h 55mn
Bit rate : 2 432 Kbps
Width : 1 056 pixels
Height : 440 pixels
Display aspect ratio : 2.40:1
Frame rate mode : Constant
Frame rate : 23.976 fps
Color space : YUV
Chroma subsampling : 4:2:0
Bit depth : 8 bits
Scan type : Progressive
Bits/(Pixel*Frame) : 0.218
Stream size : 1.91 GiB (74%)
Title : Ultimatum.Borna.2007.D.BDRip.x264.potroks
Writing library : x264 core 116 r2019M 9cc407d
Encoding settings : cabac=1 / ref=12 / deblock=1:-2:-1 / analyse=0x3:0x133 / me=umh / subme=9 / psy=1 / psy_rd=1.00:0.00 / mixed_ref=1 / me_range=42 / chroma_me=1 / trellis=1 / 8x8dct=1 / cqm=0 / deadzone=21,11 / fast_pskip=0 / chroma_qp_offset=-2 / threads=8 / sliced_threads=0 / nr=0 / decimate=1 / interlaced=0 / bluray_compat=0 / constrained_intra=0 / bframes=8 / b_pyramid=1 / b_adapt=2 / b_bias=0 / direct=3 / weightb=1 / open_gop=0 / weightp=2 / keyint=250 / keyint_min=23 / scenecut=45 / intra_refresh=0 / rc_lookahead=80 / rc=2pass / mbtree=1 / bitrate=2432 / ratetol=1.0 / qcomp=0.60 / qpmin=10 / qpmax=51 / qpstep=4 / cplxblur=20.0 / qblur=0.7 / ip_ratio=1.37 / aq=1:1.20
Language : English
Default : Yes
Forced : No
Audio #1
ID : 2
Format : AC-3
Format/Info : Audio Coding 3
Mode extension : CM (complete main)
Format settings, Endianness : Big
Codec ID : A_AC3
Duration : 1h 55mn
Bit rate mode : Constant
Bit rate : 384 Kbps
Channel(s) : 6 channels
Channel positions : Front: L C R, Side: L R, LFE
Sampling rate : 48.0 KHz
Bit depth : 16 bits
Compression mode : Lossy
Stream size : 316 MiB (12%)
Title : Dub AC3, 5.1 ch., 384
Language : Russian
Default : Yes
Forced : Yes
Audio #2
ID : 3
Format : AC-3
Format/Info : Audio Coding 3
Mode extension : CM (complete main)
Format settings, Endianness : Big
Codec ID : A_AC3
Duration : 1h 55mn
Bit rate mode : Constant
Bit rate : 384 Kbps
Channel(s) : 6 channels
Channel positions : Front: L C R, Side: L R, LFE
Sampling rate : 48.0 KHz
Bit depth : 16 bits
Compression mode : Lossy
Stream size : 316 MiB (12%)
Title : Original AC3, 5.1 ch., 384 kbps
Language : English
Default : No
Forced : No
Text #1
ID : 4
Format : UTF-8
Codec ID : S_TEXT/UTF8
Codec ID/Info : UTF-8 Plain Text
Language : English
Default : No
Forced : No
Text #2
ID : 5
Format : UTF-8
Codec ID : S_TEXT/UTF8
Codec ID/Info : UTF-8 Plain Text
Language : Russian
Default : No
Forced : No
-

Эволюция Борна / The Bourne Legacy

Эволюция Борна / The Bourne Legacy Год: 2012
Страна: США / Universal Pictures
Жанр: Боевик, детектив, триллер
Продолжительность: 02:15:02
Перевод: Профессиональный (полное дублирование)
Субтитры: Русские, русские (Forced), русские (комментарии), английские
Режиссер: Тони ГилройВ ролях: Джереми Реннер, Рейчел Вайс, Эдвард Нортон, Джоан Аллен, Альберт Финни, Скотт Гленн, Стейси Кич, Донна Мерфи, Майкл Чернус, Кори Столл-Слоган: «В игре всегда несколько фигур»
Сценарий : Тони Гилрой, Дэн Гилрой
Продюсер: Патрик Краули, Фрэнк Маршалл, Бен Смит
Оператор : Роберт Элсвит
Композитор: Джеймс Ньютон Ховард
Художник: Кевин Томпсон, Молли Хьюз, Чарли Кэмпбелл
Монтаж: Джон Гилрой
Бюджет: $125 000 000
Сборы в США: $113 203 870
Сборы в мире: + $163 369 068 = $276 572 938
Сборы в России: $7 252 801
Премьера (мир): 30 июля 2012
Премьера (РФ): 30 августа 2012, «UPI»
Релиз на Blu-Ray: 13 декабря 2012, «Двадцатый Век Фокс СНГ»
Релиз на DVD: 13 декабря 2012, «Двадцатый Век Фокс СНГ»
--О фильме: В игре всегда несколько фигур. Одна из них — Джейсон Борн, другая — совершенный агент Аарон Кросс. Их возможности безграничны. Но даже у идеального оружия бывают сбои…
-Качество: BDRip-AVC [Blu-Ray]
Формат: MKV
Видео: H.264, 960x400 (2.40:1), 23,976 fps, 1874 Кkbps, 0.204 bit/pixel
Аудио#1: 48 kHz, AC3 Dolby Digital, 3/2 (L,C,R,l,r) + LFE ch, ~384.00 kbps avg | RUS
Аудио#2: 48 kHz, AC3 Dolby Digital, 3/2 (L,C,R,l,r) + LFE ch, ~448.00 kbps avg | ENG-

Media info

Format : Matroska
Format version : Version 2
File size : 2.13 GiB
Duration : 2h 15mn
Overall bit rate : 2 257 Kbps
Movie name : -=POTROKS=-
Encoded date : UTC 2012-12-04 15:35:44
Writing application : mkvmerge v5.7.0 ('The Whirlwind') built on Jul 8 2012 20:08:51
Writing library : libebml v1.2.3 + libmatroska v1.3.0
Video
ID : 1
Format : AVC
Format/Info : Advanced Video Codec
Format profile : [email protected]
Format settings, CABAC : Yes
Format settings, ReFrames : 10 frames
Codec ID : V_MPEG4/ISO/AVC
Duration : 2h 15mn
Bit rate : 1 874 Kbps
Width : 960 pixels
Height : 400 pixels
Display aspect ratio : 2.40:1
Frame rate mode : Constant
Frame rate : 23.976 fps
Color space : YUV
Chroma subsampling : 4:2:0
Bit depth : 8 bits
Scan type : Progressive
Bits/(Pixel*Frame) : 0.204
Stream size : 1.72 GiB (81%)
Title : Эволюция Борна
Writing library : x264 core 125 r2208 d9d2288
Encoding settings : cabac=1 / ref=10 / deblock=1:-3:-2 / analyse=0x3:0x133 / me=umh / subme=9 / psy=1 / psy_rd=1.05:0.00 / mixed_ref=1 / me_range=48 / chroma_me=0 / trellis=2 / 8x8dct=1 / cqm=0 / deadzone=21,11 / fast_pskip=1 / chroma_qp_offset=-2 / threads=6 / lookahead_threads=1 / sliced_threads=0 / nr=0 / decimate=1 / interlaced=0 / bluray_compat=0 / constrained_intra=0 / bframes=11 / b_pyramid=2 / b_adapt=2 / b_bias=0 / direct=3 / weightb=1 / open_gop=0 / weightp=2 / keyint=240 / keyint_min=23 / scenecut=40 / intra_refresh=0 / rc_lookahead=240 / rc=2pass / mbtree=1 / bitrate=1874 / ratetol=1.0 / qcomp=0.75 / qpmin=0 / qpmax=65 / qpstep=3 / cplxblur=20.0 / qblur=0.5 / vbv_maxrate=20000 / vbv_bufsize=20000 / nal_hrd=none / ip_ratio=1.35 / aq=1:0.80
Language : English
Default : Yes
Forced : No
Audio
ID : 2
Format : AC-3
Format/Info : Audio Coding 3
Mode extension : CM (complete main)
Format settings, Endianness : Big
Codec ID : A_AC3
Duration : 2h 15mn
Bit rate mode : Constant
Bit rate : 384 Kbps
Channel(s) : 6 channels
Channel positions : Front: L C R, Side: L R, LFE
Sampling rate : 48.0 KHz
Bit depth : 16 bits
Compression mode : Lossy
Stream size : 371 MiB (17%)
Title : [email protected] | DD 5.1 @ 384 kbps
Language : Russian
Default : Yes
Forced : No
Text #1
ID : 3
Format : UTF-8
Codec ID : S_TEXT/UTF8
Codec ID/Info : UTF-8 Plain Text
Language : English
Default : No
Forced : No
Text #2
ID : 4
Format : UTF-8
Codec ID : S_TEXT/UTF8
Codec ID/Info : UTF-8 Plain Text
Title : Goblin
Language : Russian
Default : No
Forced : No
Menu
00:00:00.000 : en:00:00:00.000
00:08:43.690 : en:00:08:43.690
00:14:26.616 : en:00:14:26.616
00:19:57.488 : en:00:19:57.488
00:27:53.297 : en:00:27:53.297
00:34:18.265 : en:00:34:18.265
00:42:52.403 : en:00:42:52.403
00:47:57.374 : en:00:47:57.374
00:53:56.066 : en:00:53:56.066
01:00:29.167 : en:01:00:29.167
01:07:36.636 : en:01:07:36.636
01:14:36.972 : en:01:14:36.972
01:22:39.204 : en:01:22:39.204
01:28:37.687 : en:01:28:37.687
01:36:39.043 : en:01:36:39.043
01:41:05.685 : en:01:41:05.685
01:45:07.968 : en:01:45:07.968
01:52:15.520 : en:01:52:15.520
02:00:07.283 : en:02:00:07.283
02:05:06.416 : en:02:05:06.416


Последний раз редактировалось: PIXEL 100 (2014-05-22 07:40), всего редактировалось 4 раз(а)

Создавать темы 11-Май-2014 16:20

[Профиль]  [ЛС] 

БЕГИ 1996

Стаж: 4 года 2 месяца

Сообщений: 17

Симпатии: 15

PIXEL 100, Спасибо брат за релиз и естественно + и надеюсь скорость будет хорошим

Создавать темы 11-Май-2014 18:41

[Профиль]  [ЛС] 

PIXEL 100 ®

Стаж: 4 года 4 месяца

Сообщений: 49

Симпатии: 8

827023PIXEL 100, Спасибо брат за релиз и естественно + и надеюсь скорость будет хорошим
Надеюсь на твой помащ mb

Создавать темы 11-Май-2014 21:06

[Профиль]  [ЛС] 

garris

Стаж: 5 лет 3 месяца

Сообщений: 78

Симпатии: 8

помощь к тебе иду на раздаче PIXEL 100 если не против конечно tf

Создавать темы 14-Май-2014 19:07

[Профиль]  [ЛС] 

fagando88

Стаж: 5 лет

Сообщений: 8

PIXEL 100, Спасибо брат за релиз и помощь к тебе иду на раздаче

Создавать темы 15-Май-2014 00:07

[Профиль]  [ЛС] 

PIXEL 100 ®

Стаж: 4 года 4 месяца

Сообщений: 49

Симпатии: 8

828444помощь к тебе иду на раздаче PIXEL 100 если не против конечно tf
я не против буду рад garris

Создавать темы 16-Май-2014 00:02

[Профиль]  [ЛС] 

PIXEL 100 ®

Стаж: 4 года 4 месяца

Сообщений: 49

Симпатии: 8

MP3 MP3 MP3 класс


Последний раз редактировалось: PIXEL 100 (2014-06-19 14:17), всего редактировалось 1 раз

Создавать темы 16-Май-2014 00:04

[Профиль]  [ЛС] 

Топик был перенесен из форума Зарубежное кино в форум HD-AVC
Grock

Создавать темы 22-Май-2014 13:55

 

Javokhir

Стаж: 5 лет 8 месяцев

Сообщений: 31

Симпатии: 4

Повтор >> https://tas-ix.net/viewtopic.php?t=89833

Создавать темы 25-Май-2014 03:26

[Профиль]  [ЛС] 

Weltschmerz

Стаж: 4 года 7 месяцев

Сообщений: 14

833827 ay Интерестно как модеры проверяют, если слово в слово с другого релиза передрали и хеш тот же? Даже ошибки те же hm
Что за ошибки? В самих фильмах? Стоит качать одну из этих раздач?

Создавать темы 27-Июн-2014 00:04

[Профиль]  [ЛС] 

elmira

Стаж: 4 года 11 месяцев

Сообщений: 6

Симпатии: 9

скорость прибавьте народ меньше 3% осталось,дайте до качать фильм...

Создавать темы 20-Ноя-2014 22:17

[Профиль]  [ЛС] 

Cupola

Стаж: 6 лет 10 месяцев

Сообщений: 31

Симпатии: 4

Слабовато будет...

Создавать темы 09-Сен-2015 16:32

[Профиль]  [ЛС] 

Supermax83

Стаж: 5 лет 7 месяцев

Сообщений: 24

Симпатии: 3

Дайте скорость плиз! вообще не качается!

Создавать темы 26-Июн-2016 18:00

[Профиль]  [ЛС] 

Supermax83

Стаж: 5 лет 7 месяцев

Сообщений: 24

Симпатии: 3

Дайте скорости пожалуйста! Те кто скачал, кто качает и вообще сиды!!!!!!!!!!!!!!!!

Создавать темы 27-Июн-2016 20:28

[Профиль]  [ЛС] 

Supermax83

Стаж: 5 лет 7 месяцев

Сообщений: 24

Симпатии: 3

Дайте скорости плиз!!!

Создавать темы 27-Июн-2016 23:08

[Профиль]  [ЛС] 
Показать сообщения:    
Ответить на тему

Текущее время: 21-Сен 04:39

Часовой пояс: UTC + 5



Вы не можете начинать темы
Вы не можете отвечать на сообщения
Вы не можете редактировать свои сообщения
Вы не можете удалять свои сообщения
Вы не можете голосовать в опросах
Вы не можете прикреплять файлы к сообщениям
Вы не можете скачивать файлы