Старуха/The Crone (Ейсуке Наито) [2013 г., ужасы, DVDRip]

Ответить на тему
 

utkir4891 ®

Стаж: 4 года 6 месяцев

Сообщений: 14

Симпатии: 12

-Старуха/The Crone (Utkir4891)- -Год выпуска: 2013
Страна: Япония, Гонконг
Жанр: ужасы
Продолжительность: 01:11:39
Перевод: Любительский (двухголосый)[den904 и DeadSno]
Режиссер: Ейсуке Наито
Сценарий: Ейсуке Наито
Продюсер: Такасигэ Итисэ, Михико Хирата, Джимми Лаи, Джанго Марута
Мировая премьера: 27 июля 2013
-
В ролях: Хонока Мики, Шиори Китаяма, Аими Накамура, Ёсинори Окада-Описание: Аяне, Нанами и Маюко - идолы, поющие в девчачьей группе "Джерси Гёл". Однажды они становятся участниками телевизионного шоу о паранормальных явления, в поисках которых отправляются в заброшенный дом престарелых. Вскоре после того, как девушки побывали в этом здании, они покрываются всякими странными фурункулами и язвами... а затем, приходят к выводу, что стали жертвами проклятия старухи, мстящей за свои мучения...-Качество: DVD
Формат: AVI
Видео кодек: XviD
Аудио кодек: MP3
Видео: 1280x720, MPEG-4, 3.6 Mbit/s
Аудио: MP3 256 Kbit/s, 48 kHz
-

Mediainfo

General
Complete name : D:\The Crone 2013 (Utkir4891)\The Crone 2013 (Utkir4891).avi
Format : AVI
Format/Info : Audio Video Interleave
Format profile : OpenDML
File size : 1.97 GiB
Duration : 1h 11mn
Overall bit rate : 3 927 Kbps
Movie name : Release Group CINEMANIA
Writing application : Lavf55.19.104
Video
ID : 0
Format : MPEG-4 Visual
Format profile : [email protected]
Format settings, BVOP : No
Format settings, QPel : No
Format settings, GMC : No warppoints
Format settings, Matrix : Default (H.263)
Codec ID : XVID
Codec ID/Hint : XviD
Duration : 1h 11mn
Bit rate : 3 658 Kbps
Width : 1 280 pixels
Height : 720 pixels
Display aspect ratio : 16:9
Frame rate : 25.000 fps
Color space : YUV
Chroma subsampling : 4:2:0
Bit depth : 8 bits
Scan type : Progressive
Compression mode : Lossy
Bits/(Pixel*Frame) : 0.159
Stream size : 1.83 GiB (93%)
Writing library : Lavc55.39.100
Audio
ID : 1
Format : MPEG Audio
Format version : Version 1
Format profile : Layer 3
Mode : Joint stereo
Mode extension : MS Stereo
Codec ID : 55
Codec ID/Hint : MP3
Duration : 1h 11mn
Bit rate mode : Constant
Bit rate : 256 Kbps
Channel(s) : 2 channels
Sampling rate : 48.0 KHz
Compression mode : Lossy
Stream size : 131 MiB (7%)
Alignment : Aligned on interleaves
Interleave, duration : 24 ms (0.60 video frame)
Interleave, preload duration : 24 ms
Writing library : LAME3.99.5

Скриншоты



Последний раз редактировалось: utkir4891 (2014-05-14 21:54), всего редактировалось 1 раз

Создавать темы 11-Май-2014 20:35

[Профиль]  [ЛС] 

Saidov

Стаж: 4 года 10 месяцев

Сообщений: 44

дай скорость

Создавать темы 12-Май-2014 01:43

[Профиль]  [ЛС] 

himera80

Стаж: 7 лет 6 месяцев

Сообщений: 24

Симпатии: 2

ТВ3?

Создавать темы 12-Май-2014 16:56

[Профиль]  [ЛС] 

Rasul

Стаж: 5 лет 10 месяцев

Сообщений: 100

Симпатии: 6

японцы профи в ужастиках, думаю фильм хороший...

Создавать темы 12-Май-2014 17:05

[Профиль]  [ЛС] 

Артемий

Стаж: 5 лет 3 месяца

Сообщений: 96

Симпатии: 6

827442ТВ3?
Нет, телеканал премьера! Тв3 уже давно норм канал!

Создавать темы 13-Май-2014 01:06

[Профиль]  [ЛС] 

Иви

Стаж: 5 лет 11 месяцев

Сообщений: 688

Симпатии: 65

utkir4891, MediaInfo предоставьте пожалуйста

Создавать темы 14-Май-2014 19:52

[Профиль]  [ЛС] 

Kakcam

Стаж: 7 лет

Сообщений: 137

Симпатии: 7

оформление просто жесть :) уткир83178

Создавать темы 20-Май-2014 07:55

[Профиль]  [ЛС] 

outoforder

Стаж: 5 лет

Сообщений: 812

Симпатии: 172

такой фигни не видел оче давно. Это даже не тв3.

Создавать темы 23-Июл-2015 13:25

[Профиль]  [ЛС] 
Показать сообщения:    
Ответить на тему

Текущее время: 15-Дек 05:41

Часовой пояс: UTC + 5



Вы не можете начинать темы
Вы не можете отвечать на сообщения
Вы не можете редактировать свои сообщения
Вы не можете удалять свои сообщения
Вы не можете голосовать в опросах
Вы не можете прикреплять файлы к сообщениям
Вы не можете скачивать файлы