Байкеры 3 / Dhoom 3 (Виджай Кришна Ачария / Vijay Krishna Acharya) [2013, Индия, Криминал, Боевик, Триллер, HDRip] MVO (ICG) + Sub Rus (песни)

Ответить на тему
 

Suxrob89 ®

Стаж: 7 лет 1 месяц

Сообщений: 933

Симпатии: 564

-Байкеры 3 / Dhoom 3- -Страна: Индия
Жанр: Комедия
Год выпуска: 2013
Продолжительность: 02:51:00
Перевод: Любительский (многоголосый закадровый)- ICG
Субтитры: Есть (только на песни)-Режиссер: Виджай Кришна Ачария / Vijay Krishna Acharya-В ролях: Аамир Кхан, Абхишек Баччан, Удай Чопра, Катрина Каиф, Джеки Шрофф, Табретт Бетелл-Описание: В юном возрасте у индийского мальчика Сахира и его отца, живших в Чикаго, банкиры забрали цирк за долги. Цирк был их домом, где они жили и выступали с труппой других циркачей. Оставшись без крова, Сахир пообещал, что наступит тот день, когда злобные банкиры поплатятся за совершённый поступок. И этот день действительно настал, но Сахир не учёл одного - двух хинди-полицейских Джая и Али, которые готовы поймать злоумышленника.- -Качество видео: HDRip (исх. 1080р)
Формат видео: AVI
Видео: XviD, 720x304, 1076 Кбит/с, 24 fps,
Аудио: МР3, 2 ch, 128 Кбит/с [Rus ]

Media info

Общее
Полное имя : P:\Dhoom 3.2013.HDRip.Rus.Original.ICG.GeneralFilm.avi
Формат : AVI
Формат/Информация : Audio Video Interleave
Размер файла : 1,45 Гбайт
Продолжительность : 2 ч. 51 м.
Общий поток : 1213 Кбит/сек
Программа кодирования : VirtualDubModRus 1.5.10.2 (build 2542/release)
Библиотека кодирования : VirtualDubMod build 2542/release
Видео
Идентификатор : 0
Формат : MPEG-4 Visual
Профиль формата : Advanced [email protected]
Параметр BVOP формата : 1
Параметр QPel формата : Нет
Параметр GMC формата : Без точки перехода
Параметр матрицы формата : Default (MPEG)
Идентификатор кодека : XVID
Идентификатор кодека/Подсказка : XviD
Продолжительность : 2 ч. 51 м.
Битрейт : 1076 Кбит/сек
Ширина : 720 пикселей
Высота : 304 пикселя
Соотношение сторон : 2,35:1
Частота кадров : 24,000 кадра/сек
Цветовое пространство : YUV
Субдискретизация насыщенности : 4:2:0
Битовая глубина : 8 бит
Тип развёртки : Прогрессивная
Метод сжатия : С потерями
Бит/(Пиксели*Кадры) : 0.205
Размер потока : 1,29 Гбайт (89%)
Библиотека кодирования : XviD 64
Аудио
Идентификатор : 1
Формат : MPEG Audio
Версия формата : Version 1
Профиль формата : Layer 3
Режим : Joint stereo
Расширение режима : MS Stereo
Идентификатор кодека : 55
Идентификатор кодека/Подсказка : MP3
Продолжительность : 2 ч. 51 м.
Вид битрейта : Постоянный
Битрейт : 128 Кбит/сек
Каналы : 2 канала
Частота : 48,0 КГц
Метод сжатия : С потерями
Размер потока : 157 Мбайт (11%)
Выравнивание : Соединение по промежуткам
Продолжительность промежутка : 42 мс. (1,00 видеокадр)
Время предзагрузки промежутка : 504 мс.

Скриншот с названием:

Скриншоты

Создавать темы 12-Май-2014 01:16

[Профиль]  [ЛС] 

Steve_FoX

Стаж: 3 года 7 месяцев

Сообщений: 4

ваааууу спасибо

Создавать темы 12-Май-2014 02:04

[Профиль]  [ЛС] 

Sayfah

Стаж: 3 года 11 месяцев

Сообщений: 15

давно ждал фильм спасибо

Создавать темы 12-Май-2014 09:46

[Профиль]  [ЛС] 

bekafresh

Стаж: 3 года 8 месяцев

Сообщений: 19

Симпатии: 1

Скорость БеР! или ДаЙ ! ато ниже плинтуса !

Создавать темы 12-Май-2014 11:11

[Профиль]  [ЛС] 

bekafresh

Стаж: 3 года 8 месяцев

Сообщений: 19

Симпатии: 1

ЛЮДИ СКОРОСТЬ НЕ ЖАЛЕЙТЕ ПЛИЙЗ ! СКАЧАЮ ТОЖЕ НА РАЗДАЧУ СТАНУ !

Создавать темы 12-Май-2014 19:33

[Профиль]  [ЛС] 

Izmax

Стаж: 4 года 8 месяцев

Сообщений: 7

мободо карзга скорос беромисилами

Создавать темы 12-Май-2014 20:08

[Профиль]  [ЛС] 

_AGENT_

Стаж: 5 лет 4 месяца

Сообщений: 1

Мана Мархамат қанча керак скорос

Создавать темы 13-Май-2014 20:57

[Профиль]  [ЛС] 

kralyan

Стаж: 5 лет

Сообщений: 72

Симпатии: 7

Фигасе эльф))

Создавать темы 14-Май-2014 00:50

[Профиль]  [ЛС] 

behzodjon511

Стаж: 4 года 8 месяцев

Сообщений: 20

Suxrob89, скорость пожалуйста...... Ребята скоооорооость!!!

Создавать темы 15-Май-2014 11:20

[Профиль]  [ЛС] 

ulin

Стаж: 5 лет 8 месяцев

Сообщений: 8

пожалуйста добавьте BDRip 1080p формат за ранее спасибо

Создавать темы 22-Май-2014 19:44

[Профиль]  [ЛС] 

Shosho

Стаж: 4 года 6 месяцев

Сообщений: 30

ЛЮДИ КТО-НИБУДЬ ЗАЛЕЙТЕ ПОЖАЛУЙСТА "ПОЛИГЛОТ. ХИНДИ С НУЛЯ ЗА 16 ЧАСОВ"

Создавать темы 12-Июн-2014 17:41

[Профиль]  [ЛС] 

tirrand

Стаж: 4 года 1 месяц

Сообщений: 4

дайте раздачу

Создавать темы 28-Июн-2014 21:13

[Профиль]  [ЛС] 

PREHOOK

Стаж: 4 года 4 месяца

Сообщений: 49

Симпатии: 8

Фильм не очень, фантазии много.

Создавать темы 01-Июл-2014 07:30

[Профиль]  [ЛС] 

absra

Стаж: 5 лет 6 месяцев

Сообщений: 10

скорость пож

Создавать темы 08-Окт-2014 14:54

[Профиль]  [ЛС] 

mirjam77

Стаж: 3 года 7 месяцев

Сообщений: 21

этот фильм еще на раздачи? 1,01,2015

Создавать темы 01-Янв-2015 08:01

[Профиль]  [ЛС] 
Показать сообщения:    
Ответить на тему

Текущее время: 23-Сен 14:22

Часовой пояс: UTC + 5



Вы не можете начинать темы
Вы не можете отвечать на сообщения
Вы не можете редактировать свои сообщения
Вы не можете удалять свои сообщения
Вы не можете голосовать в опросах
Вы не можете прикреплять файлы к сообщениям
Вы не можете скачивать файлы