Имплант / Implanted (Томас Верретте) [2013 г., фантастика, драма, HDRip]

Ответить на тему
 

igor1968 ®

Стаж: 5 лет 5 месяцев

Сообщений: 366

Симпатии: 197

Имплант / Implanted-- Информация о фильме:
Год выпуска: 2013
Страна: США
Жанр: фантастика, драма
Продолжительность: 01:25:31
Перевод: Любительский (двухголосый) [DeadSno & den904]--Режиссер: Томас Верретте--В ролях: Джастис Лик, Роберт Пралго, Элизабет Кинер, Джейсон Тернер, Дебора Чайлдз, Тара Джин Верретте, Джеки Голдстон, Брайан Джеймс Ирвин, Стивен Эллисон, Стивен Кодилл--Описание: Однажды наступает новый день. Но что делать, если в нем нет места для вчера и, возможно, уже не будет места для завтра? Сын профессора-нейрохирурга отправляется в путешествие по закоулкам своей памяти, чтобы понять, почему у него забрали его память и что за воспоминания ему дали взамен…--Рейтинг:
 --Файл:
Качество: HDRip
Формат: AVI
Видео кодек: XviD
Аудио кодек: AC3
Видео: 720x304 (2.37:1), 29.970 fps, XviD MPEG-4 ~1969 kbps avg, 0.30 bit/pixel
Аудио: 48 kHz, AC3 Dolby Digital, 3/2 (L,C,R,l,r) + LFE ch, (6 ch), ~448.00 kbps avg----

MediaInfo

General
Complete name : Implanted.2013.HDRip.CINEMANIA.avi
Format : AVI
Format/Info : Audio Video Interleave
File size : 1.45 GiB
Duration : 1h 25mn
Overall bit rate : 2 429 Kbps
Writing application : VirtualDubMod 1.5.10.2 (build 2542/release)
Writing library : VirtualDubMod build 2542/release
Video
ID : 0
Format : MPEG-4 Visual
Format profile : Advanced [email protected]
Format settings, BVOP : Yes
Format settings, QPel : No
Format settings, GMC : No warppoints
Format settings, Matrix : Default (H.263)
Codec ID : XVID
Codec ID/Hint : XviD
Duration : 1h 25mn
Bit rate : 1 969 Kbps
Width : 720 pixels
Height : 304 pixels
Display aspect ratio : 2.35:1
Frame rate : 29.970 fps
Color space : YUV
Chroma subsampling : 4:2:0
Bit depth : 8 bits
Scan type : Progressive
Compression mode : Lossy
Bits/(Pixel*Frame) : 0.300
Stream size : 1.18 GiB (81%)
Writing library : XviD 64
Audio
ID : 1
Format : AC-3
Format/Info : Audio Coding 3
Mode extension : CM (complete main)
Format settings, Endianness : Big
Codec ID : 2000
Duration : 1h 25mn
Bit rate mode : Constant
Bit rate : 448 Kbps
Channel count : 6 channels
Channel positions : Front: L C R, Side: L R, LFE
Sampling rate : 48.0 KHz
Bit depth : 16 bits
Compression mode : Lossy
Stream size : 274 MiB (18%)
Alignment : Split accross interleaves
Interleave, duration : 33 ms (1.00 video frame)
Interleave, preload duration : 500 ms

Скриншоты



Создавать темы 12-Май-2014 21:39

[Профиль]  [ЛС] 

trololo333

Стаж: 5 лет 5 месяцев

Сообщений: 14

Симпатии: 1

ТВ3 отдыхает

Создавать темы 14-Май-2014 03:33

[Профиль]  [ЛС] 

Иви

Стаж: 5 лет 7 месяцев

Сообщений: 688

Симпатии: 65

шапку подправил

Создавать темы 14-Май-2014 19:49

[Профиль]  [ЛС] 
Показать сообщения:    
Ответить на тему

Текущее время: 18-Авг 00:32

Часовой пояс: UTC + 5



Вы не можете начинать темы
Вы не можете отвечать на сообщения
Вы не можете редактировать свои сообщения
Вы не можете удалять свои сообщения
Вы не можете голосовать в опросах
Вы не можете прикреплять файлы к сообщениям
Вы не можете скачивать файлы