Маленькие негодяи спасают положение / The Little Rascals Save the Day (Алекс Замм) [2014, Комедия, семейный HDRip] [Лицензия]

Ответить на тему
 

Slapper ®

Стаж: 3 года 9 месяцев

Сообщений: 2193

Симпатии: 213

Маленькие негодяи спасают положение / The Little Rascals Save the Day-- Год выпуска: 2014
Страна: США
Жанр: Комедия, семейный
Продолжительность: 01:37:50
Перевод: Дублированное [Лицензия]-Режиссер: Алекс Замм-В ролях: Дорис Робертс, Грег Джерманн, Лекс Медлин, Валери Эзлинн, Джет Юргенсмейер, Дрю Джастис, Коннор Берри, Дженна Ортега, Айзиа Фредерикс, Кемден Грэй-Описание:«Маленькие негодяи» — серия комедийных фильмов о группе соседских мальчиков и девочек и об их приключениях вместе...-
- 
-Сценарий: Уильям Робертсон, Алекс Замм
Продюсер: Майк Эллиот, Джерри П. Джейкобс, Лиза Гудинг-Оператор: Ливи Айзекс
Композитор: Крис Хаян-Художник: Денис Уингейт
Монтаж: Хит Райан
--Бюджет: $8 000 000
Премьера (мир): 25 марта 2014
--

MediaInfo

Format : AVI
Format/Info : Audio Video Interleave
File size : 1.46 GiB
Duration : 1h 37mn
Overall bit rate : 2 132 Kbps
Writing application : VirtualDubMod 1.5.10.2 (build 2540/release)
Writing library : VirtualDubMod build 2540/release
Video
ID : 0
Format : MPEG-4 Visual
Format profile : Advanced Simple@L5
Format settings, BVOP : 2
Format settings, QPel : No
Format settings, GMC : No warppoints
Format settings, Matrix : Custom
Codec ID : XVID
Codec ID/Hint : XviD
Duration : 1h 37mn
Bit rate : 1 675 Kbps
Width : 720 pixels
Height : 400 pixels
Display aspect ratio : 16:9
Frame rate : 23.976 fps
Color space : YUV
Chroma subsampling : 4:2:0
Bit depth : 8 bits
Scan type : Progressive
Compression mode : Lossy
Bits/(Pixel*Frame) : 0.243
Stream size : 1.14 GiB (79%)
Writing library : XviD 1.2.1 (UTC 2008-12-04)
Audio
ID : 1
Format : AC-3
Format/Info : Audio Coding 3
Mode extension : CM (complete main)
Format settings, Endianness : Big
Codec ID : 2000
Duration : 1h 37mn
Bit rate mode : Constant
Bit rate : 448 Kbps
Channel(s) : 6 channels
Channel positions : Front: L C R, Side: L R, LFE
Sampling rate : 48.0 KHz
Bit depth : 16 bits
Compression mode : Lossy
Stream size : 313 MiB (21%)
Alignment : Split accross interleaves
Interleave, duration : 42 ms (1.00 video frame)
Interleave, preload duration : 500 ms
-

Скриншоты

- -
--Качество: HDRip
Формат: AVI
Видео кодек: XviD
Аудио кодек: AC3
Видео: XviD; 720x400; 1675 Кбит/сек; 23.976 fps
Аудио: AC3; 48,0 КГц; 448 Кбит/сек; 6-ch;

Создавать темы 13-Май-2014 08:23

[Профиль]  [ЛС] 

princelf

Стаж: 5 лет 5 месяцев

Сообщений: 3

Дайте скорости пожалуйста

Создавать темы 13-Май-2014 11:18

[Профиль]  [ЛС] 

djfora92

Стаж: 6 лет 6 месяцев

Сообщений: 10

princelf, princelf, princelf, princelf, princelf, princelf, princelf,

Создавать темы 15-Май-2014 06:20

[Профиль]  [ЛС] 

Slapper ®

Стаж: 3 года 9 месяцев

Сообщений: 2193

Симпатии: 213

djfora92, djfora92, princelf, не флудите

Создавать темы 15-Май-2014 07:15

[Профиль]  [ЛС] 

kok

Стаж: 5 лет 7 месяцев

Сообщений: 40

Симпатии: 2

это же вроде старый фильм а не 2014??? или я чтото путаю там пацана альфа альфа звали вроде??

Создавать темы 16-Май-2014 15:53

[Профиль]  [ЛС] 

Liorsi

Стаж: 4 года 3 месяца

Сообщений: 4

829367это же вроде старый фильм а не 2014??? или я чтото путаю там пацана альфа альфа звали вроде??
Точно, был такой фильм, лет 15 назад еще смотрел... Помню альфу-альфу с его стоячим чубом на голове, но судя по описанию:
"Описание:«Маленькие негодяи» —серия комедийных фильмов о группе соседских мальчиков и девочек и об их приключениях вместе..."
то было другая серия...

Создавать темы 01-Июн-2014 20:31

[Профиль]  [ЛС] 

kok

Стаж: 5 лет 7 месяцев

Сообщений: 40

Симпатии: 2

да спс афтору !!! посмотрел это точно другой фильм просто образ тот же!

Создавать темы 17-Июн-2014 01:22

[Профиль]  [ЛС] 

Slapper ®

Стаж: 3 года 9 месяцев

Сообщений: 2193

Симпатии: 213

kok, не за что )

Создавать темы 17-Июн-2014 08:21

[Профиль]  [ЛС] 
Показать сообщения:    
Ответить на тему

Текущее время: 22-Авг 20:01

Часовой пояс: UTC + 5



Вы не можете начинать темы
Вы не можете отвечать на сообщения
Вы не можете редактировать свои сообщения
Вы не можете удалять свои сообщения
Вы не можете голосовать в опросах
Вы не можете прикреплять файлы к сообщениям
Вы не можете скачивать файлы