РобоКоп / RoboCop (Жозе Падилья) [2014 - Фантастика, боевик, криминал - BDRip 1080p | D | iTunes ]

Ответить на тему
 

sc257 ®

Стаж: 5 лет 6 месяцев

Сообщений: 12

Симпатии: 2

Год выпуска:2014
Страна: США, Columbia Pictures, MGM, Strike Entertainment
Жанр: Фантастика, боевик, криминал
Продолжительность: 01:57:29
Перевод: Дублированный (iTunes Russia)
Субтитры: Русские (форс., полные), Украинские (форс., полные), Английские (форс., полные, SDH)-Режиссёр: Жозе Падилья
В ролях: Юэль Киннаман, Гари Олдман, Майкл Китон, Эбби Корниш, Джей Барушель, Сэмюэл Л. Джексон, Айми Гарсиа, Дженнифер Или, Джеки Эрл Хейли, Майкл К. Уильямс-Описание: Алекс Мерфи, любящий муж, отец и хороший полицейский, борется с лавиной преступности и коррупции, обрушившейся на Детройт. Его, тяжело раненного при исполнении служебных обязанностей, OmniCorp решает задействовать в своем робототехническом эксперименте, чтобы спасти герою жизнь. Алекс возвращается на улицы города, имея в багаже новые способности, но задаваясь вопросами, с которыми человеку никогда ранее не приходилось сталкиваться.
-Качество: BDRip 1080p
Формат: MKV
Видео: MPEG4/AVC, 1920х800 (2.40:1), 10,4 Мбит/сек, 23.976 кадра/сек
Аудио 1: AC3, 6 каналов, 384 Кбит/с | Rus | iTunes Russia
Аудио 2: AC3, 2 канала, 192 Кбит/с | Ukr | iTunes Russia
Аудио 3: AC3, 6 каналов, 640 Кбит/с | Eng

Media Info

Общее
Уникальный идентификатор : 190145526944053024838830737026052230210 (0x8F0CB2482418026E92947D32A0F38C42)
Полное имя : RoboCop. (2014) BDRip 1080p.mkv
Формат : Matroska
Версия формата : Version 2
Размер файла : 9,49 Гбайт
Продолжительность : 1 ч. 57 м.
Общий поток : 11,6 Мбит/сек
Название фильма : RoboCop.2014
Дата кодирования : UTC 2014-05-09 10:20:57
Программа кодирования : mkvmerge v5.8.0 ('No Sleep / Pillow') built on Sep 2 2012 15:37:04
Библиотека кодирования : libebml v1.2.3 + libmatroska v1.3.0
Видео
Идентификатор : 1
Формат : AVC
Формат/Информация : Advanced Video Codec
Профиль формата : [email protected]
Параметр CABAC формата : Да
Параметр ReFrames формата : 5 кадров
Идентификатор кодека : V_MPEG4/ISO/AVC
Продолжительность : 1 ч. 57 м.
Битрейт : 10,4 Мбит/сек
Ширина : 1920 пикселей
Высота : 800 пикселей
Соотношение сторон : 2,40:1
Режим частоты кадров : Постоянный
Частота кадров : 23,976 кадра/сек
Цветовое пространство : YUV
Субдискретизация насыщенности : 4:2:0
Битовая глубина : 8 бит
Тип развёртки : Прогрессивная
Бит/(Пиксели*Кадры) : 0.281
Размер потока : 8,30 Гбайт (87%)
Заголовок : CHD
Библиотека кодирования : x264 core 138 r2356 a1d3d17
Настройки программы : cabac=1 / ref=5 / deblock=1:-3:-3 / analyse=0x3:0x113 / me=umh / subme=11 / psy=1 / psy_rd=1.00:0.05 / mixed_ref=1 / me_range=32 / chroma_me=1 / trellis=2 / 8x8dct=1 / cqm=0 / deadzone=21,11 / fast_pskip=0 / chroma_qp_offset=-2 / threads=18 / lookahead_threads=1 / sliced_threads=0 / nr=0 / decimate=1 / interlaced=0 / bluray_compat=0 / constrained_intra=0 / bframes=5 / b_pyramid=2 / b_adapt=2 / b_bias=0 / direct=3 / weightb=1 / open_gop=0 / weightp=2 / keyint=250 / keyint_min=23 / scenecut=40 / intra_refresh=0 / rc=2pass / mbtree=0 / bitrate=10360 / ratetol=1.0 / qcomp=0.70 / qpmin=0 / qpmax=69 / qpstep=4 / cplxblur=20.0 / qblur=0.5 / ip_ratio=1.40 / pb_ratio=1.30 / aq=2:0.90
Язык : English
Default : Да
Forced : Нет
Аудио #1
Идентификатор : 2
Формат : AC-3
Формат/Информация : Audio Coding 3
Расширение режима : CM (complete main)
Параметр Endianness формата : Big
Идентификатор кодека : A_AC3
Продолжительность : 1 ч. 57 м.
Вид битрейта : Постоянный
Битрейт : 384 Кбит/сек
Каналы : 6 каналов
Расположение каналов : Front: L C R, Side: L R, LFE
Частота : 48,0 КГц
Битовая глубина : 16 бит
Метод сжатия : С потерями
Размер потока : 323 Мбайт (3%)
Заголовок : Rus | AC3 | 5.1 | 384 kbps - DUB, iTunes
Язык : Russian
Default : Да
Forced : Нет
Аудио #2
Идентификатор : 3
Формат : AC-3
Формат/Информация : Audio Coding 3
Профиль формата : Dolby Digital
Расширение режима : CM (complete main)
Параметр Endianness формата : Big
Идентификатор кодека : A_AC3
Продолжительность : 1 ч. 57 м.
Вид битрейта : Постоянный
Битрейт : 192 Кбит/сек
Каналы : 2 канала
Расположение каналов : Front: L R
Частота : 48,0 КГц
Битовая глубина : 16 бит
Метод сжатия : С потерями
Размер потока : 161 Мбайт (2%)
Заголовок : Ukr | AC3 | 2ch | 192 kbps - DUB, iTunes
Язык : Ukrainian
Default : Нет
Forced : Нет
Аудио #3
Идентификатор : 4
Формат : AC-3
Формат/Информация : Audio Coding 3
Расширение режима : CM (complete main)
Параметр Endianness формата : Big
Идентификатор кодека : A_AC3
Продолжительность : 1 ч. 57 м.
Вид битрейта : Постоянный
Битрейт : 640 Кбит/сек
Каналы : 6 каналов
Расположение каналов : Front: L C R, Side: L R, LFE
Частота : 48,0 КГц
Битовая глубина : 16 бит
Метод сжатия : С потерями
Размер потока : 538 Мбайт (6%)
Заголовок : Eng | AC3 | 5.1 | 640 kbps
Язык : English
Default : Нет
Forced : Нет
Текст #1
Идентификатор : 5
Формат : UTF-8
Идентификатор кодека : S_TEXT/UTF8
Идентификатор кодека/Информация : UTF-8 Plain Text
Заголовок : Forced
Язык : Russian
Default : Да
Forced : Нет
Текст #2
Идентификатор : 6
Формат : UTF-8
Идентификатор кодека : S_TEXT/UTF8
Идентификатор кодека/Информация : UTF-8 Plain Text
Заголовок : Full
Язык : Russian
Default : Нет
Forced : Нет
Текст #3
Идентификатор : 7
Формат : UTF-8
Идентификатор кодека : S_TEXT/UTF8
Идентификатор кодека/Информация : UTF-8 Plain Text
Заголовок : Forced
Язык : Ukrainian
Default : Нет
Forced : Нет
Текст #4
Идентификатор : 8
Формат : UTF-8
Идентификатор кодека : S_TEXT/UTF8
Идентификатор кодека/Информация : UTF-8 Plain Text
Заголовок : Full
Язык : Ukrainian
Default : Нет
Forced : Нет
Текст #5
Идентификатор : 9
Формат : UTF-8
Идентификатор кодека : S_TEXT/UTF8
Идентификатор кодека/Информация : UTF-8 Plain Text
Заголовок : Forced
Язык : English
Default : Нет
Forced : Нет
Текст #6
Идентификатор : 10
Формат : UTF-8
Идентификатор кодека : S_TEXT/UTF8
Идентификатор кодека/Информация : UTF-8 Plain Text
Заголовок : Full
Язык : English
Default : Нет
Forced : Нет
Текст #7
Идентификатор : 11
Формат : UTF-8
Идентификатор кодека : S_TEXT/UTF8
Идентификатор кодека/Информация : UTF-8 Plain Text
Заголовок : SDH
Язык : English
Default : Нет
Forced : Нет
Меню
00:00:00.000 : en:00:00:00.000
00:04:33.899 : en:00:04:33.899
00:08:51.740 : en:00:08:51.740
00:14:33.915 : en:00:14:33.915
00:17:01.604 : en:00:17:01.604
00:19:27.041 : en:00:19:27.041
00:21:52.937 : en:00:21:52.937
00:26:13.572 : en:00:26:13.572
00:30:47.971 : en:00:30:47.971
00:32:48.675 : en:00:32:48.675
00:36:12.379 : en:00:36:12.379
00:39:06.970 : en:00:39:06.970
00:43:03.498 : en:00:43:03.498
00:45:40.655 : en:00:45:40.655
00:52:10.377 : en:00:52:10.377
00:57:21.188 : en:00:57:21.188
01:01:23.889 : en:01:01:23.889
01:02:59.901 : en:01:02:59.901
01:06:05.920 : en:01:06:05.920
01:10:30.476 : en:01:10:30.476
01:13:26.527 : en:01:13:26.527
01:18:24.867 : en:01:18:24.867
01:21:56.203 : en:01:21:56.203
01:26:04.993 : en:01:26:04.993
01:28:06.907 : en:01:28:06.907
01:32:02.976 : en:01:32:02.976
01:35:52.956 : en:01:35:52.956
01:38:30.655 : en:01:38:30.655
01:41:30.751 : en:01:41:30.751
01:43:44.635 : en:01:43:44.635
01:46:41.562 : en:01:46:41.562
01:50:12.689 : en:01:50:12.689

Скриншоты

Создавать темы 13-Май-2014 17:24

[Профиль]  [ЛС] 

Топик был перенесен из форума Фильмы за 2014 (новинки) в форум Зарубежное кино
Mixer City

Создавать темы 13-Май-2014 18:03

 

Masud

Стаж: 3 года 6 месяцев

Сообщений: 12

Симпатии: 1

Привет ребята! Пожалуйста дайте скорость!

Создавать темы 22-Июн-2014 13:52

[Профиль]  [ЛС] 
Показать сообщения:    
Ответить на тему

Текущее время: 17-Авг 18:49

Часовой пояс: UTC + 5



Вы не можете начинать темы
Вы не можете отвечать на сообщения
Вы не можете редактировать свои сообщения
Вы не можете удалять свои сообщения
Вы не можете голосовать в опросах
Вы не можете прикреплять файлы к сообщениям
Вы не можете скачивать файлы