Стальная тревога! / Full Metal Panic! [TV+OVA] [без хардсаба] [RUS(int), JAP+SUB] [2002-2006 г., приключения, комедия, романтика, меха, BDRip] [1080р]

Ответить на тему
 

Азиз87 ®

Стаж: 5 лет 1 месяц

Сообщений: 752

Симпатии: 143

- Год выпуска: 2002
Страна: Япония
Жанр: приключения, комедия, романтика, меха
Продолжительность: ТВ (24 эп.), 25 мин.
Выпуск: c 08.01.2002 по 18.06.2002-Студия:
Режиссер: Тигира Койти
Автор оригинала: Гато Сёдзи-Описание:
Сагара Соске (Sosuke Sagara) - элитный боец специальных сил частной организации "Мифрил" (Mithril). Эта организация была создана для борьбы с терроризмом во всем мире. Она использует технологии, намного превосходящие достижения остальных жителей планеты, что позволяет ей более эффективно бороться с преступностью. Сагара получает от командования приказ любым способом защитить японскую школьницу Чидори Канаме (Kaname Chidori). По легенде он ее новый одноклассник. Пока Сагара вживается в непростую для него роль школьника, вокруг Чидори плетутся интриги с целью ее похищения. Что же движет заговорщиками? Какая участь ожидает Чидори?
© Hollow, World Art-Средний балл: 8.3 из 10
Место в рейтинге: 435 из 2549
Проголосовало: 2642 чел.-

Раздача состоит из:

-
#1 Стальная тревога! - ТВ (24 эп.), адаптация ранобэ, 2002
#2 Стальная тревога: Фумоффу - ТВ (12 эп.), spinoff (ответвление сюжета), 2003
#3 Стальная тревога! Новый рейд [ТВ] - ТВ (13 эп.), продолжение, 2005
#4 Стальная тревога! Новый рейд OVA - OVA (1 эп.), продолжение, 2006
-
-

#2 Стальная тревога! Фумоффу / Full Metal Panic! Fumoffu (Такэмото Ясухиро) [TV] [12 из 12] [RUS(int), JAP+SUB] [2003 г., приключения, комедия, школа, BDRip] [1080p]

- Год выпуска: 2003
Страна: Япония
Жанр: приключения, комедия, романтика, меха
Продолжительность: ТВ (12 эп.), 25 мин.
Выпуск: c 26.08.2003 по 18.11.2003-Студия:
Режиссер: Такэмото Ясухиро
Автор оригинала: Гато Сёдзи-Описание:
Приключения Сагары продолжаются. Но теперь он просто обычный школьник, а не агент под прикрытием. Поблизости нет ни КГБ, ни террористов, которые бы могли угрожать спокойной школьной жизни, но оказывается, в повседневности тоже достаточно причин не терять бдительность и не выпускать из рук военную амуницию. Изнеженые регбисты, групировки якудзы, тайные поклонницы, психованые полицейские, зазнавшиеся каратисты, мстительные призраки, маньяки - извращенцы, студенческий совет и масса недовольных учителей. Это лишь маленькая толика того, что выпадет на голову бывшего сержанта Сагары.
© Hollow, World Art-Средний балл: 8.8 из 10
Место в рейтинге: 118 из 2549
Проголосовало: 3217 чел.-Качество: BDRip
Формат видео: MKV
Видео: x264 (8bit), 1440x1072 (4:3), ~2 307 Kbps, 29.970 fps
Аудио: Japanese, AC-3, 48000Hz, 384 Kbps, 5.1ch, в составе контейнера
Аудио: Russian, AC-3, 48000Hz, 384 Kbps, 5.1ch, в составе контейнера | MC-Entertainment
Субтитры: Russian, ASS, в составе контейнера | MC-Entertainment / Witwood [TASIW]
-

Подробные тех. данные:

General
Unique ID                                : 173953490977780997189695033380632455691 (0x82DE3945BED27553B5857C4C6D96EA0B)
Complete name                            : *\Full Metal Panic! Fumoffu 01 RUS.mkv
Format                                   : Matroska
Format version                           : Version 2
File size                                : 535 MiB
Duration                                 : 23mn 50s
Overall bit rate                         : 3 137 Kbps
Encoded date                             : UTC 2009-10-16 05:17:19
Writing application                      : mkvmerge v2.9.8 ('C'est le bon') built on Aug 13 2009 12:49:06
Writing library                          : libebml v0.7.7 + libmatroska v0.8.1
Video
ID                                       : 1
Format                                   : AVC
Format/Info                              : Advanced Video Codec
Format profile                           : [email protected]
Format settings, CABAC                   : Yes
Format settings, ReFrames                : 5 frames
Codec ID                                 : V_MPEG4/ISO/AVC
Bit rate                                 : 2 307 Kbps
Width                                    : 1 440 pixels
Height                                   : 1 072 pixels
Display aspect ratio                     : 4:3
Frame rate mode                          : Variable
Original frame rate                      : 29.970 fps
Color space                              : YUV
Chroma subsampling                       : 4:2:0
Bit depth                                : 8 bits
Scan type                                : Progressive
Writing library                          : x264 core 65 r1069+31 ea668df
Encoding settings                        : cabac=1 / ref=5 / deblock=1:0:0 / analyse=0x3:0x133 / me=umh / subme=7 / psy_rd=1.0:0.0 / mixed_ref=1 / me_range=32 / chroma_me=1 / trellis=2 / 8x8dct=1 / cqm=2 / deadzone=21,11 / chroma_qp_offset=-2 / threads=6 / nr=0 / decimate=1 / mbaff=0 / bframes=2 / b_pyramid=1 / b_adapt=2 / b_bias=0 / direct=3 / wpredb=1 / keyint=240 / keyint_min=1 / scenecut=65(pre) / rc=crf / crf=22.0 / qcomp=0.60 / qpmin=14 / qpmax=51 / qpstep=4 / ip_ratio=1.40 / pb_ratio=1.30 / aq=1:1.00
Language                                 : Japanese
Default                                  : Yes
Forced                                   : No
Audio #1
ID                                       : 2
Format                                   : AC-3
Format/Info                              : Audio Coding 3
Mode extension                           : CM (complete main)
Format settings, Endianness              : Big
Codec ID                                 : A_AC3
Duration                                 : 23mn 50s
Bit rate mode                            : Constant
Bit rate                                 : 384 Kbps
Channel count                            : 6 channels
Channel positions                        : Front: L C R, Side: L R, LFE
Sampling rate                            : 48.0 KHz
Bit depth                                : 16 bits
Compression mode                         : Lossy
Stream size                              : 65.5 MiB (12%)
Title                                    : Russian
Language                                 : Russian
Default                                  : Yes
Forced                                   : No
Audio #2
ID                                       : 3
Format                                   : AC-3
Format/Info                              : Audio Coding 3
Mode extension                           : CM (complete main)
Format settings, Endianness              : Big
Codec ID                                 : A_AC3
Duration                                 : 23mn 50s
Bit rate mode                            : Constant
Bit rate                                 : 384 Kbps
Channel count                            : 6 channels
Channel positions                        : Front: L C R, Side: L R, LFE
Sampling rate                            : 48.0 KHz
Bit depth                                : 16 bits
Compression mode                         : Lossy
Delay relative to video                  : 100ms
Stream size                              : 65.5 MiB (12%)
Title                                    : Japanese
Language                                 : Japanese
Default                                  : No
Forced                                   : No
Text #1
ID                                       : 4
Format                                   : UTF-8
Codec ID                                 : S_TEXT/UTF8
Codec ID/Info                            : UTF-8 Plain Text
Title                                    : Russian [MC-Ent]
Language                                 : Russian
Default                                  : Yes
Forced                                   : No
Text #2
ID                                       : 5
Format                                   : ASS
Codec ID                                 : S_TEXT/ASS
Codec ID/Info                            : Advanced Sub Station Alpha
Compression mode                         : Lossless
Title                                    : Russian Witwood [TASIW]
Language                                 : Russian
Default                                  : No
Forced                                   : No

Скриншоты:

#3 Стальная тревога! Новый рейд / Full Metal Panic! The Second Raid (Такэмото Ясухиро) [TV] [13 из 13] [RUS(int), JAP+SUB] [2005 г., приключения, комедия, меха, BDRip] [1080p]

- Год выпуска: 2005
Страна: Япония
Жанр: приключения, комедия, меха
Продолжительность: ТВ (13 эп.), 25 мин.
Выпуск: c 14.07.2005 по 20.10.2005-Студия:
Режиссер: Такэмото Ясухиро
Автор оригинала: Гато Сёдзи-Описание:
Третий сезон продолжает основную сюжетную линию фильма. «Мифрил» делает своё обычное дело, противодействует террору и экстремизму, помогает гасить локальные конфликты. Похоже, Тидори Канаме уже ничего не угрожает, и командование чем дальше, тем больше задаётся вопросом: какой смысл держать возле девушки Сагару, который нужен для боевой работы и испытаний «Арбалеста»? Главные герои тем временем заканчивают школу. Сагара впервые задумывается: что же он будет делать дальше? Каким он хочет видеть своё будущее?
В третьем сезоне снова появляются боевые сцены. Война показана жестоко и натуралистично. Более не упоминается про СССР и КГБ, война идёт с террористами, зато у «Мифрила» обнаруживается достойный соперник: организация «Амальгама», одним из руководителей которой является, как оказывается, Леонард Тестаросса — брат Тессы.
Эта часть сериала более подробно раскрывает прошлое Сагары, Тессы и Мелиссы Мао. В нескольких сериях показана служебная деятельность Тессы, её взаимоотношения с командованием «Мифрила». Из появившихся новых персонажей интересна пара сестёр-боевиков Юй Фан и Юй Лан — девушки, ровесницы Сагары, воспитанные как совершенные убийцы-профессионалы, абсолютно преданные учителю. Они и Сагара олицетворяют два разных варианта судьбы, две возможности: «дети войны», начавшие с одного и того же, становятся очень разными. Сагара, которого нашёл Калинин, вырос нормальным человеком, пусть и не без странностей; сёстры, оказавшись воспитанницами своего учителя, не сохранили ничего человеческого, кроме разве что любви друг к другу.
© Hollow, World Art-Средний балл: 8.7 из 10
Место в рейтинге: 153 из 2549
Проголосовало: 2358 чел.-Качество: BDRip
Формат видео: MKV
Видео: x264 (8bit), 1920x1080 (16:9), ~2 600 Kbps, 23.976 fps
Аудио: Japanese, AAC, 48000Hz, ~574 Kbps, 5.1ch, в составе контейнера
Аудио: Russian, AC-3, 48000Hz, 384 Kbps, 5.1ch, в составе контейнера | MC-Entertainment
Субтитры: Russian, ASS, в составе контейнера | Alex/AT
-

Подробные тех. данные:

General
Unique ID                                : 237819620378715715819837821361341076676 (0xB2EA64902E2A91BC830DCE3C5CC414C4)
Complete name                            : *\Full Metal Panic! The Second Raid 01 RUS.mkv
Format                                   : Matroska
Format version                           : Version 2
File size                                : 602 MiB
Duration                                 : 23mn 39s
Overall bit rate                         : 3 557 Kbps
Encoded date                             : UTC 2010-01-17 14:41:27
Writing application                      : mkvmerge v2.9.8 ('C'est le bon') built on Aug 13 2009 12:49:06
Writing library                          : libebml v0.7.7 + libmatroska v0.8.1
Video
ID                                       : 1
Format                                   : AVC
Format/Info                              : Advanced Video Codec
Format profile                           : [email protected]
Format settings, CABAC                   : Yes
Format settings, ReFrames                : 4 frames
Codec ID                                 : V_MPEG4/ISO/AVC
Duration                                 : 23mn 39s
Nominal bit rate                         : 2 600 Kbps
Width                                    : 1 920 pixels
Height                                   : 1 080 pixels
Display aspect ratio                     : 16:9
Frame rate mode                          : Constant
Frame rate                               : 23.976 fps
Color space                              : YUV
Chroma subsampling                       : 4:2:0
Bit depth                                : 8 bits
Scan type                                : Progressive
Bits/(Pixel*Frame)                       : 0.052
Writing library                          : x264 core 65 r1040M 1591275
Encoding settings                        : cabac=1 / ref=4 / deblock=1:0:0 / analyse=0x3:0x113 / me=umh / subme=6 / psy_rd=1.0:0.0 / mixed_ref=1 / me_range=16 / chroma_me=1 / trellis=2 / 8x8dct=1 / cqm=0 / deadzone=21,11 / chroma_qp_offset=-2 / threads=4 / nr=0 / decimate=1 / mbaff=0 / bframes=5 / b_pyramid=1 / b_adapt=2 / b_bias=0 / direct=3 / wpredb=1 / keyint=250 / keyint_min=25 / scenecut=100(pre) / rc=2pass / bitrate=2600 / ratetol=1.0 / qcomp=0.60 / qpmin=10 / qpmax=51 / qpstep=4 / cplxblur=20.0 / qblur=0.5 / vbv_maxrate=50000 / vbv_bufsize=30000 / ip_ratio=2.00 / pb_ratio=1.20 / aq=0
Language                                 : Japanese
Default                                  : Yes
Forced                                   : No
Audio #1
ID                                       : 2
Format                                   : AC-3
Format/Info                              : Audio Coding 3
Mode extension                           : CM (complete main)
Format settings, Endianness              : Big
Codec ID                                 : A_AC3
Duration                                 : 23mn 39s
Bit rate mode                            : Constant
Bit rate                                 : 384 Kbps
Channel count                            : 6 channels
Channel positions                        : Front: L C R, Side: L R, LFE
Sampling rate                            : 48.0 KHz
Bit depth                                : 16 bits
Compression mode                         : Lossy
Delay relative to video                  : 1s 0ms
Stream size                              : 65.0 MiB (11%)
Title                                    : Russian [MC-Ent]
Language                                 : Russian
Default                                  : Yes
Forced                                   : No
Audio #2
ID                                       : 3
Format                                   : AAC
Format/Info                              : Advanced Audio Codec
Format profile                           : LC
Codec ID                                 : A_AAC
Duration                                 : 23mn 39s
Channel count                            : 6 channels
Channel positions                        : Front: L C R, Side: L R, LFE
Sampling rate                            : 48.0 KHz
Compression mode                         : Lossy
Title                                    : Japanese
Language                                 : Japanese
Default                                  : No
Forced                                   : No
Text
ID                                       : 4
Format                                   : ASS
Codec ID                                 : S_TEXT/ASS
Codec ID/Info                            : Advanced Sub Station Alpha
Compression mode                         : Lossless
Title                                    : Russian [Alex/AT]
Language                                 : Russian
Default                                  : Yes
Forced                                   : No

Скриншоты:

#4 Стальная тревога! Новое задание OVA / Full Metal Panic! The Second Raid OVA (Такэмото Ясухиро) [OVA] [1 из 1] [RUS(int), JAP+SUB] [2006 г., комедия, BDRip] [1080p]

- Год выпуска: 2006
Страна: Япония
Жанр: комедия
Тип: OVA (1 эп.), 30 мин.
Премьера: 26.05.2006-Студия:
Режиссер: Такэмото Ясухиро
Автор оригинала: Гато Сёдзи-Описание:
У капитана подводной лодки редко выпадает возможность отдохнуть, но даже сверхтехнологичному Данаану (Danaan) нужно хоть изредка заходить в сухие доки и делать ремонт. Ну а перед отпуском полагается отпраздновать всей командой появление спокойных дней, когда можно не беспокоится об опасностях и террористах, а просто наслаждаться жизнью. Что может сделать алкогольный коктейль с красавицей Тессой Тестаросса (Tessa Testarossa), когда мысли о, пускай и коротком, расстовании с субмариной, ставшей родным домом, и сержантом Соске (Sagara Sosuke), никак не дают покоя?... Все начинатеся с пробуждения Тессы, которая совершенно не помнит что произошло на вчерашней вечеринке и что она делала. Призналась ли она в любви Сагаре или сделал что-то еще менее обдуманное, вы сможете узнать, посмотрев романтическую комедию Full Metal Panic! The Second Raid OVA.
© Hollow, World Art-Средний балл: 8.5 из 10
Место в рейтинге: 336 из 2549
Проголосовало: 1188 чел.-Качество: BDRip
Формат видео: MKV
Видео: x264 (8bit), 1920x1080 (16:9), ~2 600 Kbps, 23.976 fps
Аудио: Japanese, AC-3, 48000Hz, 448 Kbps, 5.1ch, в составе контейнера
Аудио: Russian, AC-3, 48000Hz, 448 Kbps, 5.1ch, в составе контейнера | SPAWN2
Субтитры: Russian, ASS, в составе контейнера | Witwood [TASIW]
-

Подробные тех. данные:

General
Unique ID                                : 203626230083163404867233518295649902748 (0x9930FC430AD6DB50ADAA2E008BF0609C)
Complete name                            : *\Full Metal Panic! The Second Raid OVA.mkv
Format                                   : Matroska
Format version                           : Version 2
File size                                : 740 MiB
Duration                                 : 29mn 41s
Overall bit rate                         : 3 486 Kbps
Movie name                               : Full Metal Panic! TSR OVA
Encoded date                             : UTC 2009-08-23 08:13:36
Writing application                      : mkvmerge v2.9.8 ('C'est le bon') built on Aug 13 2009 12:49:06
Writing library                          : libebml v0.7.7 + libmatroska v0.8.1
Attachment                               : Yes / Yes
Video
ID                                       : 1
Format                                   : AVC
Format/Info                              : Advanced Video Codec
Format profile                           : [email protected]
Format settings, CABAC                   : Yes
Format settings, ReFrames                : 4 frames
Format settings, GOP                     : N=1
Codec ID                                 : V_MPEG4/ISO/AVC
Duration                                 : 29mn 41s
Bit rate                                 : 2 600 Kbps
Width                                    : 1 920 pixels
Height                                   : 1 080 pixels
Display aspect ratio                     : 16:9
Frame rate mode                          : Constant
Frame rate                               : 23.976 fps
Color space                              : YUV
Chroma subsampling                       : 4:2:0
Bit depth                                : 8 bits
Scan type                                : Progressive
Bits/(Pixel*Frame)                       : 0.052
Stream size                              : 535 MiB (72%)
Title                                    : Full Metal Panic! The Second Raid OVA
Writing library                          : x264 core 65 r1040M 1591275
Encoding settings                        : cabac=1 / ref=4 / deblock=1:0:0 / analyse=0x3:0x113 / me=umh / subme=6 / psy_rd=1.0:0.0 / mixed_ref=1 / me_range=16 / chroma_me=1 / trellis=2 / 8x8dct=1 / cqm=0 / deadzone=21,11 / chroma_qp_offset=-2 / threads=4 / nr=0 / decimate=1 / mbaff=0 / bframes=5 / b_pyramid=1 / b_adapt=2 / b_bias=0 / direct=3 / wpredb=1 / keyint=250 / keyint_min=25 / scenecut=100(pre) / rc=2pass / bitrate=2600 / ratetol=1.0 / qcomp=0.60 / qpmin=10 / qpmax=51 / qpstep=4 / cplxblur=20.0 / qblur=0.5 / vbv_maxrate=50000 / vbv_bufsize=30000 / ip_ratio=2.00 / pb_ratio=1.20 / aq=0
Language                                 : Japanese
Default                                  : Yes
Forced                                   : No
Audio #1
ID                                       : 2
Format                                   : AC-3
Format/Info                              : Audio Coding 3
Mode extension                           : CM (complete main)
Format settings, Endianness              : Big
Codec ID                                 : A_AC3
Duration                                 : 29mn 41s
Bit rate mode                            : Constant
Bit rate                                 : 448 Kbps
Channel count                            : 6 channels
Channel positions                        : Front: L C R, Side: L R, LFE
Sampling rate                            : 48.0 KHz
Bit depth                                : 16 bits
Compression mode                         : Lossy
Delay relative to video                  : 1s 0ms
Stream size                              : 95.1 MiB (13%)
Title                                    : AC3, 6ch 448kbps (Russian)
Language                                 : Russian
Default                                  : Yes
Forced                                   : No
Audio #2
ID                                       : 3
Format                                   : AC-3
Format/Info                              : Audio Coding 3
Mode extension                           : CM (complete main)
Format settings, Endianness              : Big
Codec ID                                 : A_AC3
Duration                                 : 29mn 41s
Bit rate mode                            : Constant
Bit rate                                 : 448 Kbps
Channel count                            : 6 channels
Channel positions                        : Front: L C R, Side: L R, LFE
Sampling rate                            : 48.0 KHz
Bit depth                                : 16 bits
Compression mode                         : Lossy
Delay relative to video                  : 1s 0ms
Stream size                              : 95.1 MiB (13%)
Title                                    : AC3, 6ch 448kbps (Japanese)
Language                                 : Japanese
Default                                  : No
Forced                                   : No
Text #1
ID                                       : 4
Format                                   : ASS
Codec ID                                 : S_TEXT/ASS
Codec ID/Info                            : Advanced Sub Station Alpha
Compression mode                         : Lossless
Title                                    : Russian
Language                                 : Russian
Default                                  : Yes
Forced                                   : No
Text #2
ID                                       : 5
Format                                   : ASS
Codec ID                                 : S_TEXT/ASS
Codec ID/Info                            : Advanced Sub Station Alpha
Compression mode                         : Lossless
Title                                    : English
Language                                 : English
Default                                  : No
Forced                                   : No

Скриншоты:

Качество: BDRip
Формат видео: MKV
Видео: x264 (8bit), 1440x1080 (4:3), ~2 559 Kbps, 23.976 fps
Аудио: Japanese, AC-3, 48000Hz, 384 Kbps, 5.1ch, в составе контейнера
Аудио: Russian, AC-3, 48000Hz, 384 Kbps, 5.1ch, в составе контейнера | MC-Entertainment
Субтитры: Russian, ASS, в составе контейнера | Witwood [TASIW]
-

Подробные тех. данные:

General
Unique ID                                : 184699193183378916587554430643894160264 (0x8AF3C54BA6D55DA59171F97EE6B30B88)
Complete name                            : *\Full Metal Panic! 01 RUS.mkv
Format                                   : Matroska
Format version                           : Version 2
File size                                : 554 MiB
Duration                                 : 22mn 49s
Overall bit rate                         : 3 395 Kbps
Encoded date                             : UTC 2010-03-23 10:44:04
Writing application                      : mkvmerge v3.2.0 ('Beginnings') built on Feb 12 2010 16:46:17
Writing library                          : libebml v0.7.9 + libmatroska v0.8.1
Video
ID                                       : 1
Format                                   : AVC
Format/Info                              : Advanced Video Codec
Format profile                           : [email protected]
Format settings, CABAC                   : Yes
Format settings, ReFrames                : 3 frames
Codec ID                                 : V_MPEG4/ISO/AVC
Duration                                 : 22mn 49s
Bit rate                                 : 2 559 Kbps
Width                                    : 1 440 pixels
Height                                   : 1 080 pixels
Display aspect ratio                     : 4:3
Frame rate mode                          : Constant
Frame rate                               : 23.976 fps
Color space                              : YUV
Chroma subsampling                       : 4:2:0
Bit depth                                : 8 bits
Scan type                                : Progressive
Bits/(Pixel*Frame)                       : 0.069
Stream size                              : 418 MiB (75%)
Writing library                          : x264 core 60 r901 58d7d06
Encoding settings                        : cabac=1 / ref=3 / deblock=1:0:0 / analyse=0x3:0x133 / me=umh / subme=6 / brdo=1 / mixed_ref=1 / me_range=16 / chroma_me=1 / trellis=1 / 8x8dct=1 / cqm=0 / deadzone=21,11 / chroma_qp_offset=0 / threads=6 / nr=0 / decimate=1 / mbaff=0 / bframes=16 / b_pyramid=1 / b_adapt=1 / b_bias=0 / direct=1 / wpredb=1 / bime=1 / keyint=250 / keyint_min=25 / scenecut=50(pre) / rc=cqp / qp=18 / ip_ratio=1.40 / pb_ratio=1.30 / aq=0
Language                                 : Japanese
Default                                  : Yes
Forced                                   : No
Audio #1
ID                                       : 2
Format                                   : AC-3
Format/Info                              : Audio Coding 3
Mode extension                           : CM (complete main)
Format settings, Endianness              : Big
Codec ID                                 : A_AC3
Duration                                 : 22mn 49s
Bit rate mode                            : Constant
Bit rate                                 : 384 Kbps
Channel count                            : 6 channels
Channel positions                        : Front: L C R, Side: L R, LFE
Sampling rate                            : 48.0 KHz
Bit depth                                : 16 bits
Compression mode                         : Lossy
Stream size                              : 62.7 MiB (11%)
Title                                    : Russian [MC-Ent]
Language                                 : Russian
Default                                  : Yes
Forced                                   : No
Audio #2
ID                                       : 3
Format                                   : AC-3
Format/Info                              : Audio Coding 3
Mode extension                           : CM (complete main)
Format settings, Endianness              : Big
Codec ID                                 : A_AC3
Duration                                 : 22mn 49s
Bit rate mode                            : Constant
Bit rate                                 : 384 Kbps
Channel count                            : 6 channels
Channel positions                        : Front: L C R, Side: L R, LFE
Sampling rate                            : 48.0 KHz
Bit depth                                : 16 bits
Compression mode                         : Lossy
Stream size                              : 62.7 MiB (11%)
Title                                    : Japanese
Language                                 : Japanese
Default                                  : No
Forced                                   : No
Text
ID                                       : 4
Format                                   : ASS
Codec ID                                 : S_TEXT/ASS
Codec ID/Info                            : Advanced Sub Station Alpha
Compression mode                         : Lossless
Title                                    : Russian Witwood [TASIW]
Language                                 : Russian
Default                                  : Yes
Forced                                   : No

Скриншоты:



Последний раз редактировалось: Азиз87 (2014-05-14 22:41), всего редактировалось 1 раз

Создавать темы 13-Май-2014 18:01

[Профиль]  [ЛС] 

Азиз87 ®

Стаж: 5 лет 1 месяц

Сообщений: 752

Симпатии: 143

Раздача запланирована на вечер пятницы - 16.04.2014. Приятного просмотра.

Создавать темы 14-Май-2014 22:43

[Профиль]  [ЛС] 

bl4ckSun

Стаж: 4 года 2 месяца

Сообщений: 48

Симпатии: 1

спс) за релиз но такие шедевры в ремуксах у меня)

Создавать темы 14-Май-2014 23:04

[Профиль]  [ЛС] 

rikimaruxxx

Стаж: 5 лет 5 месяцев

Сообщений: 254

Симпатии: 42

спасибо! размер огромный отдачу не ограничиваем товарищи личеры
п.с. 2001:0:5ef5:79fd:183a:3191:4d25:36bf:59030 мой статичный айпи по крайне мере на следующий 20дней

Создавать темы 15-Май-2014 00:14

[Профиль]  [ЛС] 

Азиз87 ®

Стаж: 5 лет 1 месяц

Сообщений: 752

Симпатии: 143

828583спс) за релиз но такие шедевры в ремуксах у меня)
Ну что же могу сказать пару месяцев качать 212+Гб не по мне. Да и явное улучшение качества не увидите в первых 2х сезонах это факт.

Создавать темы 15-Май-2014 01:18

[Профиль]  [ЛС] 

bl4ckSun

Стаж: 4 года 2 месяца

Сообщений: 48

Симпатии: 1

828645
828583спс) за релиз но такие шедевры в ремуксах у меня)
Ну что же могу сказать пару месяцев качать 212+Гб не по мне. Да и явное улучшение качества не увидите в первых 2х сезонах это факт.
ну кому пару месяцев кому 12-15 дней :D
я бы релизнул но увы качать во первых мало кто будет во вторых мало прид***ов которые ценят меху

Создавать темы 15-Май-2014 01:20

[Профиль]  [ЛС] 

Lyoman

Стаж: 5 лет 11 месяцев

Сообщений: 77

Симпатии: 3

спс что выложил буду качать полюбас, а после помогу с раздачей)

Создавать темы 15-Май-2014 06:25

[Профиль]  [ЛС] 

LikeSmile

Стаж: 4 года 7 месяцев

Сообщений: 298

Симпатии: 48

Пичалько, что озвучка и сабы вшиты в контейнер

Создавать темы 15-Май-2014 09:37

[Профиль]  [ЛС] 

rikimaruxxx

Стаж: 5 лет 5 месяцев

Сообщений: 254

Симпатии: 42

скрин

день рождения фурукавы нагисы из кланнада день рождения джун-куна из короны греха, день рождения канаме чидори и Тереза Тестароссы 24 декабрь я тоже родился в 24 декабря td
у них что традиция такая родится в 24 декабря?

Создавать темы 15-Май-2014 14:04

[Профиль]  [ЛС] 

dizzy

Стаж: 5 лет 11 месяцев

Сообщений: 94

Симпатии: 1

Вот это релиз былых времен...Классная Анимеха

Создавать темы 16-Май-2014 21:22

[Профиль]  [ЛС] 

Lyoman

Стаж: 5 лет 11 месяцев

Сообщений: 77

Симпатии: 3

да классная то классная, но качать её походу до ишачей пасхи на таких скоростях( от 12 до 15 кб/с

Создавать темы 17-Май-2014 08:00

[Профиль]  [ЛС] 

axafa

Стаж: 4 года 9 месяцев

Сообщений: 11

Народ!!! не убегайте с раздачи как скачаете!!! надо кое что докачаьб и скоро сам на раздачу встану!!!!

Создавать темы 29-Май-2014 22:40

[Профиль]  [ЛС] 

павлентус

Стаж: 5 лет 2 месяца

Сообщений: 23

блин когда скорость появится?

Создавать темы 10-Дек-2014 19:41

[Профиль]  [ЛС] 
Показать сообщения:    
Ответить на тему

Текущее время: 12-Дек 02:12

Часовой пояс: UTC + 5



Вы не можете начинать темы
Вы не можете отвечать на сообщения
Вы не можете редактировать свои сообщения
Вы не можете удалять свои сообщения
Вы не можете голосовать в опросах
Вы не можете прикреплять файлы к сообщениям
Вы не можете скачивать файлы