Ромовый Дневник / The Rum Diary (Брюс Робинсон) [2011 г., Драма,Комедия,Приключения, HDrip]

Ответить на тему
 

Djoni111095 ®

Стаж: 4 года 10 месяцев

Сообщений: 57

Симпатии: 11

Ромовый дневник«''Все на Грани Фола''»-- Год выпуска: 2011
Страна: Сша
Жанр: Драма,Комедия,Приключения
Продолжительность: 02:00:00
Перевод: Профессиональный (полное дублирование)
Режиссер: Брюс Робинсон-В ролях: Джонни Депп
Майкл Рисполи
Аарон Экхарт
Эмбер Хёрд
Джованни Рибизи
Ричард Дженкинс
Амори Ноласко
Маршалл Белл
Билл Смитрович
Джулиан Холлоуэй
-Описание: 1960-й год. Талантливый журналист Пол Кэмп, которого достала лживая глянцевая жизнь Нью-Йорка, бросает работу в престижном издании и уезжает в Пуэрто-Рико, где ром льется рекой, где дешево все — машины, яхты, девушки, здесь саму жизнь продают за копейки…-Доп. информация:
 -Бюджет: $45 000 000
Сборы в США: $13 109 815
Сборы в мире: + $10 837 729 = $23 947 544-Качество: HDRip
Формат: AVI
Видео кодек: XviD
Аудио кодек: AC3
Видео: XviD, 1998 Kbps ,720x384
Аудио: AC-3, 448 Kbps, 6 channels, 48.0 KHz

MI

Complete name : D:\Romoviy_Dnevnik.2010.HDRip.avi
Format : AVI
Format/Info : Audio Video Interleave
File size : 2.06 GiB
Duration : 1h 59mn
Overall bit rate : 2 455 Kbps
Writing application : VirtualDubMod 1.5.10.2 (build 2540/release)
Writing library : VirtualDubMod build 2540/release
Video
ID : 0
Format : MPEG-4 Visual
Format profile : Advanced [email protected]
Format settings, BVOP : 2
Format settings, QPel : No
Format settings, GMC : No warppoints
Format settings, Matrix : Default (H.263)
Codec ID : XVID
Codec ID/Hint : XviD
Duration : 1h 59mn
Bit rate : 1 998 Kbps
Width : 720 pixels
Height : 384 pixels
Display aspect ratio : 1.875
Frame rate : 23.976 fps
Color space : YUV
Chroma subsampling : 4:2:0
Bit depth : 8 bits
Scan type : Progressive
Compression mode : Lossy
Bits/(Pixel*Frame) : 0.301
Stream size : 1.67 GiB (81%)
Writing library : XviD 1.2.1 (UTC 2008-12-04)
Audio
ID : 1
Format : AC-3
Format/Info : Audio Coding 3
Codec ID : 2000
Duration : 1h 59mn
Bit rate mode : Constant
Bit rate : 448 Kbps
Channel(s) : 6 channels
Sampling rate : 48.0 KHz
Compression mode : Lossy
Stream size : 384 MiB (18%)
Alignment : Split accross interleaves
Interleave, duration : 42 ms (1.00 video frame)
Interleave, preload duration : 500 ms

Скриншоты

Создавать темы 14-Май-2014 23:26

[Профиль]  [ЛС] 

Grock

Стаж: 6 лет 7 месяцев

Сообщений: 637

Симпатии: 113

Вот та же раздача, но там нет сидов Ромовый дневник / The Rum Diary (Брюс Робинсон) [2011 г., драма, комедия, приключения, HDRip] [лицензия]

Создавать темы 18-Май-2014 14:45

[Профиль]  [ЛС] 

sergio0687

Стаж: 5 лет 11 месяцев

Сообщений: 23

Встаньте на раздачу, плиз, уже неделю не могу докачать.

Создавать темы 26-Июн-2014 15:16

[Профиль]  [ЛС] 
Показать сообщения:    
Ответить на тему

Текущее время: 25-Сен 03:54

Часовой пояс: UTC + 5



Вы не можете начинать темы
Вы не можете отвечать на сообщения
Вы не можете редактировать свои сообщения
Вы не можете удалять свои сообщения
Вы не можете голосовать в опросах
Вы не можете прикреплять файлы к сообщениям
Вы не можете скачивать файлы